Loading...
Error

Скачать Мими-металлист, уязвленный в своей чести / Mimњ metallurgico ferito nell'onore (Лина Вертмюллер) [1972, комедия, BDRip-AVC] [DVO]x2+[Оригинал]+[Sub] торрент без регистрации

 
Статистика раздачи
Размер:  3,21 GB   |    Скачан:  97 раз

Полного источника не было: 20 минут

 
Автор Сообщение

Marsianka

[] 

Информация о фильме
Название: Мими-металлист, уязвленный в своей чести
Оригинальное название: Mimњ metallurgico ferito nell'onore
Год выхода: 1972
Жанр: комедия
Режиссер: Лина Вертмюллер
В ролях: Джанкарло Джаннини, Марианджела Мелато, Тури Ферро, Агостина Белли, Луиджи Диберти, Елена Фьоре, Туччо Мусумечи, Игнацио Паппалардо, Джанфранко Барра, Ливия Джампальмо, Розария Рапизарда, Умберто Лентини, Сальваторе Саваста, Отторино Руссо, Джованни Кори, Клаудио Трионфи, Джанни Пулоне, Антонио Микалицци, Сара Микалицци, Сальваторе Чентаморе, Андреа Мауджери, Франческо Пеллегрини

О фильме:
Бедный сицилиец Мими, потерявший работу в родном городке, вынужден отправится в холодный дождливый Турин, где он устраивается гастарбайтером на стройке фактически за еду и койку в общежитии. После серии смешных и грустных приключений Мими повезло. Его признает за дальнего родственника (сицилийцы ведь все друг другу родня) один из боссов. И вот, теперь Мими носит гордое звание «металлурга» и работает на большом заводе А еще он знакомится со взбалмошной и экстравагантной Фьореллой, после знакомства с которой в жизни Мими начинается настоящий ураган



Страна: Италия, Euro International Film (EIA)
Продолжительность: 01:52:40
Перевод: Профессиональный двухголосый

Файл
Кодек: x264
Качество: BDRip-AVC
Видео: MPEG-4 AVC, 3500 Кбит/с, 1024x552, 24.000 кадр/с
Аудио #1: Русский (AC3, 2 ch, 192 Кбит/с) / Профессиональный двухголосый (ТРК Петербург-Пятый Канал)
Аудио #2: Русский (AC3, 2 ch, 192 Кбит/с) / Профессиональный двухголосый
Аудио #3: Итальянский (AC3, 1 ch, 192 Кбит/с)
Субтитры: Английские
Семпл
x264 [info]: frame I:1157 Avg QP:17.61 size:131361
x264 [info]: frame P:44407 Avg QP:20.13 size: 36221
x264 [info]: frame B:116682 Avg QP:22.11 size: 10262

Format : Matroska
Format version : Version 4 / Version 2
File size : 3.21 GiB
Duration : 1h 52mn
Overall bit rate : 4 078 Kbps
Movie name : -=MediaClub - Odessit=-
Encoded date : UTC 2013-12-07 14:37:58
Writing application : mkvmerge v6.2.0 ('Promised Land') built on Apr 28 2013 12:22:01
Writing library : libebml v1.3.0 + libmatroska v1.4.0

Video
ID : 1
Format : AVC
Format/Info : Advanced Video Codec
Format profile : High@L4.1
Format settings, CABAC : Yes
Format settings, ReFrames : 9 frames
Codec ID : V_MPEG4/ISO/AVC
Duration : 1h 52mn
Bit rate : 3 500 Kbps
Width : 1 024 pixels
Height : 552 pixels
Display aspect ratio : 1.855
Frame rate : 24.000 fps
Color space : YUV
Chroma subsampling : 4:2:0
Bit depth : 8 bits
Scan type : Progressive
Bits/(Pixel*Frame) : 0.258
Stream size : 2.69 GiB (84%)
Writing library : x264 core 130 r2273 b3065e6
Encoding settings : cabac=1 / ref=9 / deblock=1:-3:-3 / analyse=0x3:0x133 / me=umh / subme=11 / psy=1 / psy_rd=1.00:0.20 / mixed_ref=1 / me_range=48 / chroma_me=1 / trellis=2 / 8x8dct=1 / cqm=0 / deadzone=21,11 / fast_pskip=0 / chroma_qp_offset=-3 / threads=6 / lookahead_threads=1 / sliced_threads=0 / nr=0 / decimate=0 / interlaced=0 / bluray_compat=0 / constrained_intra=0 / bframes=9 / b_pyramid=2 / b_adapt=2 / b_bias=0 / direct=3 / weightb=1 / open_gop=0 / weightp=2 / keyint=240 / keyint_min=24 / scenecut=40 / intra_refresh=0 / rc=2pass / mbtree=0 / bitrate=3500 / ratetol=1.0 / qcomp=0.60 / qpmin=0 / qpmax=69 / qpstep=4 / cplxblur=20.0 / qblur=0.5 / ip_ratio=1.40 / pb_ratio=1.30 / aq=1:1.00
Language : English

Audio #1
ID : 2
Format : AC-3
Format/Info : Audio Coding 3
Mode extension : CM (complete main)
Codec ID : A_AC3
Duration : 1h 52mn
Bit rate mode : Constant
Bit rate : 192 Kbps
Channel(s) : 2 channels
Channel positions : Front: L R
Sampling rate : 48.0 KHz
Bit depth : 16 bits
Compression mode : Lossy
Stream size : 155 MiB (5%)
Title : Двухголосый закадровый, ТРК Петербург-Пятый Канал
Language : Russian

Audio #2
ID : 3
Format : AC-3
Format/Info : Audio Coding 3
Mode extension : CM (complete main)
Codec ID : A_AC3
Duration : 1h 52mn
Bit rate mode : Constant
Bit rate : 192 Kbps
Channel(s) : 2 channels
Channel positions : Front: L R
Sampling rate : 48.0 KHz
Bit depth : 16 bits
Compression mode : Lossy
Stream size : 155 MiB (5%)
Title : Двухголосый закадровый
Language : Russian

Audio #3
ID : 4
Format : AC-3
Format/Info : Audio Coding 3
Mode extension : CM (complete main)
Codec ID : A_AC3
Duration : 1h 52mn
Bit rate mode : Constant
Bit rate : 192 Kbps
Channel(s) : 1 channel
Channel positions : Front: C
Sampling rate : 48.0 KHz
Bit depth : 16 bits
Compression mode : Lossy
Stream size : 155 MiB (5%)
Language : Italian

Text
ID : 5
Format : UTF-8
Codec ID : S_TEXT/UTF8
Codec ID/Info : UTF-8 Plain Text
Language : English

Menu
00:00:00.000 : :Chapter 01
00:09:14.583 : :Chapter 02
00:18:43.416 : :Chapter 03
00:22:57.833 : :Chapter 04
00:34:28.625 : :Chapter 05
00:45:53.500 : :Chapter 06
00:55:22.583 : :Chapter 07
01:06:02.083 : :Chapter 08
01:13:26.375 : :Chapter 09
01:25:03.916 : :Chapter 10
01:32:57.082 : :Chapter 11
01:43:17.958 : :Chapter 12
01:52:40.000 : :Chapter 13
Релиз от: |



Скачать Мими-металлист.уязвленный.в.своей.чести.Mimњ.metallurgico.ferito.nell'onore.(Лина.Вертмюллер).[1972.комедия.BDRip-AVC].[DVO]x2+[Оригинал]+[Sub].torrent без регистрации
Золото ЗОЛОТАЯ РАЗДАЧА! СКАЧАННОЕ НЕ ЗАСЧИТЫВАЕТСЯ! Золото
Дата: Зарегистрирован   [ Тип: внутренний ] Как тут cкачать?
MAGNET ссылка
MAGNET ссылка


Скачать .torrent

17 KB

Статус: проверено DHT
Скачан: торрент - 97 раз, раздача полностью - 0 раз
Размер: 3,21 GB
Оценка:  - (Голосов: 0)
Поблагодарили: 1
Поделиться ссылкой на эту раздачу с друзьями:
В контактеFacebookОдноклассникиTwitterLivejournalМой МирLiveinternet
 

 
Показать сообщения:    


Вы не можете начинать темы
Вы не можете отвечать на сообщения
Вы не можете редактировать свои сообщения
Вы не можете удалять свои сообщения
Вы не можете голосовать в опросах
Вы не можете прикреплять файлы к сообщениям
Вы можете скачивать файлы