Loading...
Error

Скачать Мания величия / La folie des grandeurs (Жерар Ури) [1971, комедия, HDRip] [MVO] торрент без регистрации

 
Статистика раздачи
Размер:  1,46 GB   |    Скачан:  115 раз

Полного источника не было: 21 минута

 
Автор Сообщение

Marsianka

[] 

Мания величия / La folie des grandeurs
Страна: Франция, Италия, Испания, Германия
Жанр: комедия
Год выпуска: 1971
Продолжительность: 01:49:05
Перевод: Профессиональный (многоголосый закадровый) R5, DVD Magic
Cубтитры: нет
Оригинальная аудиодорожка: нет

Режиссер: Жерар Ури / Gerard Oury

В ролях: Луи де Фюнес, Ив Монтан, Алис Саприч, Карин Шуберт, Альберто де Мендоса, Дон Хайме де Мора-и-Арагон, Эдуардо Фахардо, Антонио Пика, Хоакин Солис, Венантино Венантини, Габриэле Тинти, Поль Пребуа

Описание: Луи Де Фюнес в роли жадного сборщика налогов, обворовывающего короля. Его слугу Рюи Блаза играет Ив Монтан. Разбитной веселый мошенник постоянно издевается над хозяином и строит ему козни.
Так он использует неописуемую алчность и жажду лести человека, считающего, что «бедные должны быть бедными, а богатые должны стать еще богаче», и подбивает Де Фюнеса соблазнить испанскую королеву, на которую сам положил глаз



Качество видео: HDRip - Исходник BDRip 1080p
Формат видео: AVI
Видео кодек: XviD
Аудио кодек: AC3
Видео: 720x384 (1.88:1), 24.000 fps, XviD build 73 ~1708 kbps avg, 0.26 bit/pixel
Аудио: 48 kHz, AC3 Dolby Digital, 2/0 (L,R) ch, ~192 kbps
Раздача от:
D:Мои рипыLa.Folie.des.Grandeurs.1971.HDRip.dexter_lex.avi
General
Complete name : D:Мои рипыLa.Folie.des.Grandeurs.1971.HDRip.dexter_lex.avi
Format : AVI
Format/Info : Audio Video Interleave
File size : 1.46 GiB
Duration : 1h 49mn
Overall bit rate : 1 910 Kbps
Writing application : VirtualDubMod 1.5.10.3 | www.virtualdub-fr.org || (build 2550/release)
Writing library : VirtualDubMod build 2550/release
Video #0
ID : 0
Format : MPEG-4 Visual
Format profile : Advanced Simple@L5
Format settings, BVOP : 1
Format settings, QPel : No
Format settings, GMC : No warppoints
Format settings, Matrix : Custom
Codec ID : XVID
Codec ID/Hint : XviD
Duration : 1h 49mn
Bit rate : 1 708 Kbps
Width : 720 pixels
Height : 384 pixels
Display aspect ratio : 1.875
Frame rate : 24.000 fps
Color space : YUV
Chroma subsampling : 4:2:0
Bit depth : 8 bits
Scan type : Progressive
Compression mode : Lossy
Bits/(Pixel*Frame) : 0.257
Stream size : 1.30 GiB (89%)
Writing library : XviD 73
Audio #1
ID : 1
Format : AC-3
Format/Info : Audio Coding 3
Mode extension : CM (complete main)
Codec ID : 2000
Duration : 1h 49mn
Bit rate mode : Constant
Bit rate : 192 Kbps
Channel(s) : 2 channels
Channel positions : Front: L R
Sampling rate : 48.0 KHz
Bit depth : 16 bits
Compression mode : Lossy
Stream size : 150 MiB (10%)
Alignment : Split accross interleaves
Interleave, duration : 42 ms (1.00 video frame)
Interleave, preload duration : 500 ms



Скачать Мания.величия.La.folie.des.grandeurs.(Жерар.Ури).[1971.комедия.HDRip].[MVO].torrent без регистрации
Золото ЗОЛОТАЯ РАЗДАЧА! СКАЧАННОЕ НЕ ЗАСЧИТЫВАЕТСЯ! Золото
Дата: Зарегистрирован   [ Тип: внутренний ] Как тут cкачать?
MAGNET ссылка
MAGNET ссылка


Скачать .torrent

15 KB

Статус: проверено DHT
Скачан: торрент - 115 раз, раздача полностью - 25 раз
Размер: 1,46 GB
Оценка:  5 (Голосов: 1)
Поблагодарили: 1
Поделиться ссылкой на эту раздачу с друзьями:
В контактеFacebookОдноклассникиTwitterLivejournalМой МирLiveinternet
 

 
Показать сообщения:    


Вы не можете начинать темы
Вы не можете отвечать на сообщения
Вы не можете редактировать свои сообщения
Вы не можете удалять свои сообщения
Вы не можете голосовать в опросах
Вы не можете прикреплять файлы к сообщениям
Вы можете скачивать файлы