Loading...
Error

Скачать Иди домой / Going Home (Херберт Б. Леонард) [1971, драма, DVDRip-AVC] [MVO] торрент без регистрации

 
Статистика раздачи
Размер:  1,2 GB   |    Скачан:  120 раз
Сидов:  1  [  0 KB/s  ]  
 
Автор Сообщение

Marsianka

[] 

Информация о фильме
Название: Иди домой
Оригинальное название: Going Home
Год выхода: 1971
Жанр: драма
Режиссер: Херберт Б. Леонард / Herbert B. Leonard
В ролях: Роберт Митчум, Бренда Ваккаро, Ян-Майкл Винсент, Джейсон Бернард, Сэлли Кёркленд, Лу Гилберт, Джош Мостел, Дэвид Уилсон, Гленн Уокен

О фильме:
Гарри возвращается домой после 15 лет пребывания в тюрьме, куда он попал за убийство жены. Теперь ему предстоит решить сложную задачу - наладить отношения с подросшим сыном, который был свидетелем убийства.



Страна: США
Студия: MGM
Продолжительность: 01:37:32
Перевод: Профессиональный (многоголосый закадровый) ВГТРК "Россия"

Файл
Кодек: h.264
Качество: DVDRip-AVC
Видео: 672x480 (1.658) @ 796x480 (анаморф), 23.976 fps, AVC, ~1440 Kbps, 0.186 bits/pixel
Английский, 48.0 KHz, AC3, 2 ch, 192 Kbps
Русский, 48.0 KHz, AC3, 2 ch, 128 Kbps
(все двойное моно)
Субтитры: нет
Общее
Уникальный идентификатор : 211679481959398204280574828727758449055 (0x9F3FFC3C155293D6ADEB164CCF9B699F)
Полное имя : D:FilmsIdi_domoy.1971.DVDRip-AVC.mkv
Формат : Matroska
Версия формата : Version 4 / Version 2
Размер файла : 1,20 Гбайт
Продолжительность : 1 ч. 37 м.
Общий поток : 1762 Кбит/сек
Дата кодирования : UTC 2013-12-01 20:53:20
Программа кодирования : mkvmerge v6.6.0 ('The Edge Of The In Between') built on Dec 1 2013 17:55:00
Библиотека кодирования : libebml v1.3.0 + libmatroska v1.4.1

Видео
Идентификатор : 1
Формат : AVC
Формат/Информация : Advanced Video Codec
Профиль формата : High@L4.1
Параметр CABAC формата : Да
Параметр ReFrames формата : 16 кадров
Идентификатор кодека : V_MPEG4/ISO/AVC
Продолжительность : 1 ч. 37 м.
Битрейт : 1440 Кбит/сек
Ширина : 672 пикселя
Высота : 480 пикселей
Соотношение сторон : 1,658
Соотношение сторон в оригинале : 1,659
Режим частоты кадров : Постоянный
Частота кадров : 23,976 кадра/сек
Цветовое пространство : YUV
Субдискретизация насыщенности : 4:2:0
Битовая глубина : 8 бит
Тип развёртки : Прогрессивная
Бит/(Пиксели*Кадры) : 0.186
Размер потока : 981 Мбайт (80%)
Библиотека кодирования : x264 core 133 r2334 a3ac64b
Настройки программы : cabac=1 / ref=16 / deblock=1:0:0 / analyse=0x3:0x133 / me=umh / subme=10 / psy=1 / psy_rd=1.05:0.10 / mixed_ref=1 / me_range=32 / chroma_me=1 / trellis=2 / 8x8dct=1 / cqm=0 / deadzone=21,11 / fast_pskip=0 / chroma_qp_offset=-3 / threads=8 / lookahead_threads=2 / sliced_threads=0 / nr=0 / decimate=0 / interlaced=0 / bluray_compat=0 / constrained_intra=0 / bframes=11 / b_pyramid=2 / b_adapt=2 / b_bias=0 / direct=3 / weightb=1 / open_gop=0 / weightp=2 / keyint=240 / keyint_min=23 / scenecut=40 / intra_refresh=0 / rc_lookahead=60 / rc=2pass / mbtree=0 / bitrate=1440 / ratetol=1.0 / qcomp=0.60 / qpmin=0 / qpmax=60 / qpstep=4 / cplxblur=20.0 / qblur=0.5 / vbv_maxrate=50000 / vbv_bufsize=62500 / nal_hrd=none / ip_ratio=1.40 / pb_ratio=1.30 / aq=1:1.00
Default : Нет
Forced : Нет
Коэффициенты матрицы : BT.601

Аудио #1
Идентификатор : 2
Формат : AC-3
Формат/Информация : Audio Coding 3
Расширение режима : CM (complete main)
Параметр Endianness формата : Big
Идентификатор кодека : A_AC3
Продолжительность : 1 ч. 37 м.
Вид битрейта : Постоянный
Битрейт : 192 Кбит/сек
Каналы : 2 канала
Расположение каналов : Front: L R
Частота : 48,0 КГц
Битовая глубина : 16 бит
Метод сжатия : С потерями
Размер потока : 134 Мбайт (11%)
Язык : English
Default : Нет
Forced : Нет

Аудио #2
Идентификатор : 3
Формат : AC-3
Формат/Информация : Audio Coding 3
Расширение режима : CM (complete main)
Параметр Endianness формата : Big
Идентификатор кодека : A_AC3
Продолжительность : 1 ч. 37 м.
Вид битрейта : Постоянный
Битрейт : 128 Кбит/сек
Каналы : 2 канала
Расположение каналов : Front: L R
Частота : 48,0 КГц
Битовая глубина : 16 бит
Метод сжатия : С потерями
Размер потока : 89,3 Мбайт (7%)
Язык : Russian
Default : Да
Forced : Нет

Меню
00:00:00.000 : en:Chapter 01
00:03:03.000 : en:Chapter 02
00:05:52.000 : en:Chapter 03
00:07:26.000 : en:Chapter 04
00:09:49.000 : en:Chapter 05
00:13:50.000 : en:Chapter 06
00:15:56.000 : en:Chapter 07
00:18:32.500 : en:Chapter 08
00:23:41.000 : en:Chapter 09
00:27:07.000 : en:Chapter 10
00:31:50.000 : en:Chapter 11
00:36:46.000 : en:Chapter 12
00:40:50.000 : en:Chapter 13
00:45:41.000 : en:Chapter 14
00:48:40.000 : en:Chapter 15
00:52:07.000 : en:Chapter 16
00:55:29.000 : en:Chapter 17
00:59:28.000 : en:Chapter 18
01:02:51.500 : en:Chapter 19
01:05:46.000 : en:Chapter 20
01:11:06.000 : en:Chapter 21
01:16:12.000 : en:Chapter 22
01:20:03.000 : en:Chapter 23
01:22:50.000 : en:Chapter 24
01:25:31.000 : en:Chapter 25
01:29:20.000 : en:Chapter 26
01:32:05.000 : en:Chapter 27
01:36:13.000 : en:Chapter 28
Исходник R1 Warner Archive Collection + синхр. дорожка с TVRip
Релиз от: Temperest



Скачать Иди.домой.Going.Home.(Херберт.Б.Леонард).[1971.драма.DVDRip-AVC].[MVO].torrent без регистрации
Золото ЗОЛОТАЯ РАЗДАЧА! СКАЧАННОЕ НЕ ЗАСЧИТЫВАЕТСЯ! Золото
Дата: Зарегистрирован   [ Тип: внутренний ] Как тут cкачать?
MAGNET ссылка
MAGNET ссылка


Скачать .torrent

13 KB

Статус: проверено DHT
Скачан: торрент - 120 раз, раздача полностью - 0 раз
Размер: 1,2 GB
Оценка:  - (Голосов: 0)
Поблагодарили: 0
Поделиться ссылкой на эту раздачу с друзьями:
В контактеFacebookОдноклассникиTwitterLivejournalМой МирLiveinternet
 

 
Показать сообщения:    


Вы не можете начинать темы
Вы не можете отвечать на сообщения
Вы не можете редактировать свои сообщения
Вы не можете удалять свои сообщения
Вы не можете голосовать в опросах
Вы не можете прикреплять файлы к сообщениям
Вы можете скачивать файлы