Loading...
Error

Скачать Город гангстеров / Mob City (Сезон 01, серии 01-02 из 06) (Фрэнк Дарабонт, Гай Ферленд) [2013, Триллер, драма, криминал, детектив, WEB-DL] [1080p] [VO] (М. Максимов) + Original торрент без регистрации

 
Статистика раздачи
Размер:  3,53 GB   |    Скачан:  143 раза

Полного источника не было: 21 минута

 
Автор Сообщение

leon030982

[] 

Город гангстеров / Mob City
Год выпуска: 2013
Страна: США
Жанр: Триллер, драма, криминал, детектив
Продолжительность: 00:48:13
Перевод: Любительский (одноголосый закадровый) [М. Максимов]
Русские субтитры: нет

Режиссёр: Фрэнк Дарабонт, Гай Ферленд

В ролях: Джон Бернтал, Эдвард Бёрнс, Майло Вентимилья, Нил МакДонаф, Алекса Давалос, Джеффри ДеМанн, Роберт Неппер, Джереми Люк, Грегори Итцин, Иддо Голдбер

Описание: Реальная история многолетнего конфликта между департаментом полиции Лос-Анджелеса под руководством Уильяма Паркера и безжалостных преступников во главе с Микки Коэном, боксёром, который взошёл на вершину криминального мира этого города.Сериал основан на книге Джона Бантина «L.A. Noir: The Struggle For The Soul Of America’s Most Seductive City».




Качество: WEB-DL 1080p
Формат: MKV
Видео кодек: H.264
Аудио кодек: AC3
Видео: MPEG-4 AVC, 1920x1080, 23,976 fps, 4832 kbps
Аудио: AC3, 48 kHz, 2 ch, 192 kbps [Russian]
Аудио 2: AC3, 48 kHz, 6 ch, 384 kbps [English]
Субтитры: English
Format : Matroska
Format version : Version 4 / Version 2
File size : 1.86 GiB
Duration : 48mn 13s
Overall bit rate : 5 517 Kbps
Encoded date : UTC 2013-12-07 12:21:19
Writing application : mkvmerge v6.3.0 ('You can't stop me!') built on Jun 28 2013 20:09:41
Writing library : libebml v1.3.0 + libmatroska v1.4.0
Video
ID : 1
Format : AVC
Format/Info : Advanced Video Codec
Format profile : High@L4.0
Format settings, CABAC : Yes
Format settings, ReFrames : 4 frames
Codec ID : V_MPEG4/ISO/AVC
Duration : 48mn 13s
Bit rate : 4 832 Kbps
Width : 1 920 pixels
Height : 1 080 pixels
Display aspect ratio : 16:9
Frame rate mode : Constant
Frame rate : 23.976 fps
Color space : YUV
Chroma subsampling : 4:2:0
Bit depth : 8 bits
Scan type : Progressive
Bits/(Pixel*Frame) : 0.097
Stream size : 1.63 GiB (88%)
Language : English
Default : Yes
Forced : No
Color primaries : BT.709
Transfer characteristics : BT.709
Matrix coefficients : BT.709
Audio #1
ID : 2
Format : AC-3
Format/Info : Audio Coding 3
Mode extension : CM (complete main)
Format settings, Endianness : Big
Codec ID : A_AC3
Duration : 48mn 13s
Bit rate mode : Constant
Bit rate : 192 Kbps
Channel count : 2 channels
Channel positions : Front: L R
Sampling rate : 48.0 KHz
Bit depth : 16 bits
Compression mode : Lossy
Stream size : 66.2 MiB (3%)
Title : М. Максимов
Language : Russian
Default : No
Forced : No
Audio #2
ID : 3
Format : AC-3
Format/Info : Audio Coding 3
Mode extension : CM (complete main)
Format settings, Endianness : Big
Codec ID : A_AC3
Duration : 48mn 13s
Bit rate mode : Constant
Bit rate : 384 Kbps
Channel count : 6 channels
Channel positions : Front: L C R, Side: L R, LFE
Sampling rate : 48.0 KHz
Bit depth : 16 bits
Compression mode : Lossy
Stream size : 132 MiB (7%)
Language : English
Default : Yes
Forced : No
Text
ID : 4
Format : UTF-8
Codec ID : S_TEXT/UTF8
Codec ID/Info : UTF-8 Plain Text
Title : CC
Language : English
Default : No
Forced : No



Скачать Город.гангстеров.Mob.City.(Сезон.01.серии.01-02.из.06).(Фрэнк.Дарабонт.Гай.Ферленд).[2013.Триллер.драма.криминал.детектив.WEB-DL].[1080p].[VO].(М.Максимов).+.Original.torrent без регистрации
Золото ЗОЛОТАЯ РАЗДАЧА! СКАЧАННОЕ НЕ ЗАСЧИТЫВАЕТСЯ! Золото
Дата: Зарегистрирован   [ Тип: внутренний ] Как тут cкачать?
MAGNET ссылка
MAGNET ссылка


Скачать .torrent

18 KB

Статус: проверено DHT
Скачан: торрент - 143 раз, раздача полностью - 13 раз
Размер: 3,53 GB
Оценка:  - (Голосов: 0)
Поблагодарили: 0
Поделиться ссылкой на эту раздачу с друзьями:
В контактеFacebookОдноклассникиTwitterLivejournalМой МирLiveinternet
 

 
Показать сообщения:    


Вы не можете начинать темы
Вы не можете отвечать на сообщения
Вы не можете редактировать свои сообщения
Вы не можете удалять свои сообщения
Вы не можете голосовать в опросах
Вы не можете прикреплять файлы к сообщениям
Вы можете скачивать файлы