Loading...
Error

Скачать Суп с капустой / La soupe aux choux (Жан Жиро) [1981, комедия, DVDRip] [MVO] торрент без регистрации

 
Статистика раздачи
Размер:  1,46 GB   |    Скачан:  109 раз
Сидов:  6  [  0 KB/s  ]   Личеров:  2  [  0 KB/s  ]  
 
Автор Сообщение

Marsianka

[] 

Суп с капустой / La soupe aux choux
Год выпуска: 1981
Страна: Франция
Жанр: комедия
Продолжительность: 01:37:47
Перевод: Профессиональный (многоголосый, закадровый) - ТК НТВ
Субтитры: нет

Режиссер: Жан Жиро / Jean Girault

В ролях: Луи де Фюнес / Louis de Funes, Жак Карме / Jean Carmet, Жак Виллере / Jacques Villeret, Клод Жансак / Claude Gensac, Анри Жене / Henri Genes, Марко Перрен / Marco Perrin, Кристин Дежо / Christine Dejoux и др.

Описание: Глод (Луи де Фюнес) и Бомбе (Жан Карме) доживают свои последние деньки далеко за пределами французского поселка городского типа, в крестьянском подворье. Им чужды все преимущества современной цивилизации, электричество и все такое. В их подсобном хозяйстве есть все необходимое для жизнедеятельности, они особенно гордятся колодезной водой, натуральной, произрастающей поблизости капустой, а также изготовленными вручную различными спиртными напитками. Это чрезмерное увлечение и создало предпосылки для их встречи с залетным инопланетянином. Выйдя на улицу глубокой ночью, после очередного возлияния, издавая при этом, как бы поделикатней выразиться, в общем с их слов: пукали, прогневали небеса и чуть погодя, завалясь спать, были разбужены ярким свечением. Короче. Инопланетянин заморозил Бомбе. Глод любезно принял инопланетянина. Инопланетянину понравился суп с капустой. Инопланетянин стал прилетать еще, его начальству также понравился суп. Попутно инопланетянин воскресил умершую жену Глода в возрасте девушки, та развернула бурную деятельность, в итоге покинула родные пенаты. Новое несчастье - пришел мэр городка и заявил о его расширении за счет прилегающих территорий, в частности за счет дорогого сердцу Глода и Бомбе поместья. В это время отношения Глода и инопланетянина зашли настолько далеко, что он предложил престарелым отправиться на его планету, где им была бы обеспечена почетная старость на десятки лет (руководство планеты и сам инопланетянин попали в зависимость от капустного супа). После некоторых колебаний старики согласились и вместе с кошкой, а также с прилегающей территорией (постройки, грядки...) отправились начинать новую жизнь.



Качество: DVDRip - Исходник DVD9 / спасибо Master_Bum
Формат: AVI
Видео кодек: XviD
Аудио кодек: AC3
Видео: 720x304 (2.37:1), 25 fps, XviD build 50 ~1931 kbps avg, 0.35 bit/pixel
Аудио: 48 kHz, AC3 Dolby Digital, 2/0 (L,R) ch, ~192 kbps
Раздача от:
D:Мои рипыLa.Soupe.Aux.Choux.DVDRip.dexter_lex.avi
General
Complete name : D:Мои рипыLa.Soupe.Aux.Choux.DVDRip.dexter_lex.avi
Format : AVI
Format/Info : Audio Video Interleave
File size : 1.46 GiB
Duration : 1h 37mn
Overall bit rate : 2 133 Kbps
Writing application : VirtualDubMod 1.5.10.3 | www.virtualdub-fr.org || (build 2550/release)
Writing library : VirtualDubMod build 2550/release
Video #0
ID : 0
Format : MPEG-4 Visual
Format profile : Advanced Simple@L5
Format settings, BVOP : 1
Format settings, QPel : No
Format settings, GMC : No warppoints
Format settings, Matrix : Custom
Codec ID : XVID
Codec ID/Hint : XviD
Duration : 1h 37mn
Bit rate : 1 932 Kbps
Width : 720 pixels
Height : 304 pixels
Display aspect ratio : 2.35:1
Frame rate : 25.000 fps
Color space : YUV
Chroma subsampling : 4:2:0
Bit depth : 8 bits
Scan type : Progressive
Compression mode : Lossy
Bits/(Pixel*Frame) : 0.353
Stream size : 1.32 GiB (91%)
Writing library : XviD 1.2.1 (UTC 2008-12-04)
Audio #1
ID : 1
Format : AC-3
Format/Info : Audio Coding 3
Mode extension : CM (complete main)
Codec ID : 2000
Duration : 1h 37mn
Bit rate mode : Constant
Bit rate : 192 Kbps
Channel(s) : 2 channels
Channel positions : Front: L R
Sampling rate : 48.0 KHz
Bit depth : 16 bits
Compression mode : Lossy
Stream size : 134 MiB (9%)
Alignment : Split accross interleaves
Interleave, duration : 40 ms (1.00 video frame)
Interleave, preload duration : 500 ms



Скачать Суп.с.капустой.La.soupe.aux.choux.(Жан.Жиро).[1981.комедия.DVDRip].[MVO].torrent без регистрации
Золото ЗОЛОТАЯ РАЗДАЧА! СКАЧАННОЕ НЕ ЗАСЧИТЫВАЕТСЯ! Золото
Дата: Зарегистрирован   [ Тип: внешний ] Как тут cкачать?
MAGNET ссылка
MAGNET ссылка


Скачать .torrent

15 KB

Статус: проверено DHT
Скачан: торрент - 109 раз, раздача полностью - 70 раз
Размер: 1,46 GB
Оценка:  - (Голосов: 0)
Поблагодарили: 0
Поделиться ссылкой на эту раздачу с друзьями:
В контактеFacebookОдноклассникиTwitterLivejournalМой МирLiveinternet
 

 
Показать сообщения:    


Вы не можете начинать темы
Вы не можете отвечать на сообщения
Вы не можете редактировать свои сообщения
Вы не можете удалять свои сообщения
Вы не можете голосовать в опросах
Вы не можете прикреплять файлы к сообщениям
Вы можете скачивать файлы