Loading...
Error

/ Le Jouet ( ) [1976, , HDRip] [Dub]+[MVO]+[]+[Sub]

 
1,58 GB   |    :  120
1  [  0 KB/s  ]  
 

Marsianka

[] 

/ Le Jouet

:
:
: 1976
: 01:33:53
: / Francis Veber
: , , , , , , , , , .
: . , , .
. , -




: HDRip (: le.jouet.1976.french.720p.bluray.x264-rough)
: AVI
: 720x432 (1.67:1), 23.976 fps, XviD build 65 ~2015 kbps avg, 0.27 bit/pixel
- ( )
C:
:
#1: Russian 48 kHz, AC3 Dolby Digital, 2/0 (L,R) ch, ~192 kbps |Dub|
#2: French 48 kHz, AC3 Dolby Digital, 2/0 (L,R) ch, ~192 kbps
:

:

Format : AVI
Format/Info : Audio Video Interleave
File size : 1.45 GiB
Duration : 1h 33mn
Overall bit rate : 2 216 Kbps
Writing application : VirtualDubMod 1.5.10.2 (build 2542/release)
Writing library : VirtualDubMod build 2542/release
Video
ID : 0
Format : MPEG-4 Visual
Format profile : Advanced Simple@L5
Format settings, BVOP : 1
Format settings, QPel : No
Format settings, GMC : No warppoints
Format settings, Matrix : Custom
Codec ID : XVID
Codec ID/Hint : XviD
Duration : 1h 33mn
Bit rate : 2 015 Kbps
Width : 720 pixels
Height : 432 pixels
Display aspect ratio : 1.667
Frame rate : 23.976 fps
Color space : YUV
Chroma subsampling : 4:2:0
Bit depth : 8 bits
Scan type : Progressive
Compression mode : Lossy
Bits/(Pixel*Frame) : 0.270
Stream size : 1.32 GiB (91%)
Writing library : XviD 65
Audio
ID : 1
Format : AC-3
Format/Info : Audio Coding 3
Mode extension : CM (complete main)
Codec ID : 2000
Duration : 1h 33mn
Bit rate mode : Constant
Bit rate : 192 Kbps
Channel(s) : 2 channels
Channel positions : Front: L R
Sampling rate : 48.0 KHz
Bit depth : 16 bits
Compression mode : Lossy
Stream size : 129 MiB (9%)
Alignment : Split accross interleaves
Interleave, duration : 42 ms (1.00 video frame)
Interleave, preload duration : 500 ms
Title : Dub_USSR



.Le.Jouet.(.).[1976..HDRip].[Dub]+[MVO]+[]+[Sub].torrent
  ! ! 
:   [ : ] c?
MAGNET
MAGNET


.torrent

16 KB

: DHT
: - 120 , - 13
: 1,58 GB
- (: 0)
: 1
:
 FacebookTwitterLivejournal Liveinternet
 

 
: