Loading...
Error

Скачать Спичечный человек / L'uomo fiammifero (Марко Кьярини) [2009, драма, фэнтези, DVDRip] [VO]+[Оригинал]+[Sub] торрент без регистрации

 
Статистика раздачи
Размер:  779 MB   |    Скачан:  109 раз
Сидов:  1  [  0 KB/s  ]  
 
Автор Сообщение

Marsianka

[] 

Спичечный человек / L'uomo fiammifero
Страна: Италия
Жанр: драма, фэнтези
Год выпуска: 2009
Продолжительность: 01:23:32
Перевод: Одноголосый закадровый
Cубтитры: русские
Оригинальная аудиодорожка: итальянский
Режиссер: Марко Кьярини / Marco Chiarini
В ролях: Франческо Паннофино, Марко Леонци, Грета Кастанья, Джузеппе Матту, Франко ди Санте, Давид Курьозо, Армандо Кастанья, Анастасия ди Джузеппе, Маттео Лупи, Винченцо ди Доменикантонио, Симоне ди Джузеппе и др.
Описание: 11-летний Симоне вынужден все время торчать дома, помогая строгому отцу ухаживать за скотиной и выполняя его поручения. Но Симоне мечтает о встрече со Спичечным человеком, о котором ему рассказывала мама и который способен исполнить любое желание. Но мамы больше нет, а вера в Спичечного человека осталась. Поэтому Симоне повсюду оставляет письма Спичечному человеку и подсказки для него, чтобы тот отыскал путь к его дому. Из-за этого все вокруг, даже родной отец, считают мальчика чокнутым. Только неожиданная подружка, Лоренца, верит Симоне и помогает ему в его поисках. Исполнится ли желание детей? Откликнется ли Спичечный человек на их призывы?..




Качество видео: DVDRip
Формат видео: AVI
Видео: 640x368 (1.74:1), 25 fps, XviD build 50 ~1031 kbps avg, 0.17 bit/pixel

Сэмпл
Аудио 1: 48 kHz, MPEG Layer 3, 2 ch, ~128.00 kbps avg(Русский)
Аудио 2: 48 kHz, MPEG Layer 3, 2 ch, ~128.00 kbps avg(Итальянский)
Формат субтитров: softsub (SRT)
Доп. информация о субтитрах: Русские внешние (Calabi под редакцией prostotak)
Общее
Полное имя : D:\Мои видеозаписи\Спичечный человек\Спичечный человек.avi
Формат : AVI
Формат/Информация : Audio Video Interleave
Размер файла : 779 Мбайт
Продолжительность : 1 ч. 23 м.
Общий поток : 1303 Кбит/сек
Программа кодирования : VirtualDubModRus 1.5.10.2 (build 2542/release)
Библиотека кодирования : VirtualDubMod build 2542/release
Видео
Идентификатор : 0
Формат : MPEG-4 Visual
Профиль формата : Advanced Simple@L5
Параметр BVOP формата : 1
Параметр QPel формата : Нет
Параметр GMC формата : Без точки перехода
Параметр матрицы формата : Выборочная
Идентификатор кодека : XVID
Идентификатор кодека/Подсказка : XviD
Продолжительность : 1 ч. 23 м.
Битрейт : 1033 Кбит/сек
Ширина : 640 пикселей
Высота : 368 пикселей
Соотношение сторон : 16:9
Частота кадров : 25,000 кадров/сек
Цветовое пространство : YUV
Субдискретизация насыщенности : 4:2:0
Битовая глубина : 8 бит
Тип развёртки : Прогрессивная
Метод сжатия : С потерями
Бит/(Пиксели*Кадры) : 0.175
Размер потока : 617 Мбайт (79%)
Библиотека кодирования : XviD 1.2.1 (UTC 2008-12-04)
Аудио #1
Идентификатор : 1
Формат : MPEG Audio
Версия формата : Version 1
Профиль формата : Layer 3
Режим : Joint stereo
Идентификатор кодека : 55
Идентификатор кодека/Подсказка : MP3
Продолжительность : 1 ч. 23 м.
Вид битрейта : Постоянный
Битрейт : 128 Кбит/сек
Каналы : 2 канала
Частота : 48,0 КГц
Метод сжатия : С потерями
Размер потока : 76,5 Мбайт (10%)
Выравнивание : Соединение по промежуткам
Продолжительность промежутка : 40 мс. (1,00 видеокадр)
Время предзагрузки промежутка : 504 мс.
Библиотека кодирования : LAME3.98
Аудио #2
Идентификатор : 2
Формат : MPEG Audio
Версия формата : Version 1
Профиль формата : Layer 3
Режим : Joint stereo
Идентификатор кодека : 55
Идентификатор кодека/Подсказка : MP3
Продолжительность : 1 ч. 23 м.
Вид битрейта : Постоянный
Битрейт : 128 Кбит/сек
Каналы : 2 канала
Частота : 48,0 КГц
Метод сжатия : С потерями
Задержка видео : 96 мс.
Размер потока : 76,5 Мбайт (10%)
Выравнивание : Соединение по промежуткам
Продолжительность промежутка : 40 мс. (1,00 видеокадр)
Время предзагрузки промежутка : 504 мс.
Библиотека кодирования : LAME3.98r
Настройки программы : -m j -V 4 -q 2 -lowpass 17 -b 128



Скачать Спичечный.человек.L'uomo.fiammifero.(Марко.Кьярини).[2009.драма.фэнтези.DVDRip].[VO]+[Оригинал]+[Sub].torrent без регистрации
Золото ЗОЛОТАЯ РАЗДАЧА! СКАЧАННОЕ НЕ ЗАСЧИТЫВАЕТСЯ! Золото
Дата: Зарегистрирован   [ Тип: внутренний ] Как тут cкачать?
MAGNET ссылка
MAGNET ссылка


Скачать .torrent

16 KB

Статус: проверено DHT
Скачан: торрент - 109 раз, раздача полностью - 3 раз
Размер: 779 MB
Оценка:  - (Голосов: 0)
Поблагодарили: 2
Поделиться ссылкой на эту раздачу с друзьями:
В контактеFacebookОдноклассникиTwitterLivejournalМой МирLiveinternet
 

 
Показать сообщения:    


Вы не можете начинать темы
Вы не можете отвечать на сообщения
Вы не можете редактировать свои сообщения
Вы не можете удалять свои сообщения
Вы не можете голосовать в опросах
Вы не можете прикреплять файлы к сообщениям
Вы можете скачивать файлы