Loading...
Error

Скачать Гримм / Grimm (сезон 03) (Норберто Барба, Терренс О’Хара) [2013, ужасы, фэнтези, драма, детектив, WEB-DLRip] [MVO (LostFilm)] торрент без регистрации

 
Статистика раздачи
Размер:  11,37 GB   |    Скачан:  5169 раз
Сидов:  1  [  0 KB/s  ]  
 
Автор Сообщение

МихаНЕзатор

[] 

Гримм / Grimm


Год выпуска: 2013
Страна: США
Жанр: ужасы, фэнтези, драма, детектив
Продолжительность: ~00:46:00 серия
Перевод: Профессиональный (многоголосый закадровый) - LostFilm

Режиссёр: Норберто Барба, Терренс О’Хара

В ролях: Дэйв Гвинтоли, Расселл Хорнсби, Битси Таллоч, Сайлас Уэйр Митчелл, Саша Ройз, Регги Ли, Клэр Коффи, Айанна Беркшир, Кейт Бёртон, Тим Бэгли и др.

Описание:
В центре повествования мрачной и фэнтезийной полицейской драмы от канала NBC - детектив Ник Буркхардт, который думал, что готов к суровой действительности, работая в отделе убийств. Но это было до того, как он начал видеть вещи, которые он не мог объяснить: привлекательная женщина на его глазах превращалась в ведьму, а заурядный Джо в опасного тролля. От единственного живущего родственника Ник узнает правду о своих странных видениях: он не такой как все, а потомок отряда элитных охотников, известных как "Гримм", задача которых не допустить распространения сверхъестественных существ в нашем мире.



Качество: WEB-DLRip
Формат: AVI
Видео: XviD, 720x400 (16:9), (1 серия - 29,970 fps) 23,976 fps, ~1870 kb/s, 0,217 bit/pixel
Аудио: MP3, 48,0 KHz, 2 ch, 192 kb/s
Субтитры: отсутствуют

АНОНСЫ ПОПУЛЯРНЫХ РАЗДАЧ


02.06.2014 г. торент обновлён, добавлена 13-22 серия!


01. The Ungrateful Dead / Неблагодарный мертвец
02. PTZD / Посттравматический зомби-синдром
03. A Dish Best Served Cold / Блюдо, которое подают холодным
04. One Night Stand / На один раз
05. El Cucuy / Кукуй
06. Stories We Tell Our Young / Сказки для наших малышей
07. Cold Blooded / Хладнокровус
08. Twelve Days of Krampus / Двенадцать дней Дрожьдества
09. Red Menace / Красная угроза
10. Eyes of the Beholder / Глаза свидетеля
11. The Good Soldier / Хороший солдат
12. The Wild Hunt / Дикая охота

13. Откровение / Revelation
14. Мама дорогая / Mommy Dearest
15. Когда-то мы были богами / Once We Were Gods
16. Шоу должно продолжаться / The Show Must Go On
17. Синхроничность / Synchronicity
18. Закон жертвы / The Law of Sacrifice
19. Пришла Беда – отворяй ворота / Nobody Knows the Trubel I've
20. Моё прекрасное Существо / My Fair Wesen
21. Наследие / The Inheritance
22. Блондинка с амбициями / Blond Ambition
Общее
Полное имя : D:\Гримм (Сезон 3) Grimm (2013) WEB-DLRip - LostFilm\Grimm.S03E01.rus.LostFilm.TV.avi
Формат : AVI
Формат/Информация : Audio Video Interleave
Размер файла : 686 Мбайт
Продолжительность : 46 м.
Режим общего битрейта : Переменный
Общий поток : 2071 Кбит/сек
Программа кодирования : Nandub v1.0rc2
Библиотека кодирования : Nandub build 1853/release
Видео
Идентификатор : 0
Формат : MPEG-4 Visual
Профиль формата : Simple@L3
Параметр BVOP формата : Нет
Параметр QPel формата : Нет
Параметр GMC формата : Без точки перехода
Параметр матрицы формата : Default (H.263)
Идентификатор кодека : XVID
Идентификатор кодека/Подсказка : XviD
Продолжительность : 46 м.
Битрейт : 1870 Кбит/сек
Ширина : 720 пикселей
Высота : 400 пикселей
Соотношение сторон : 16:9
Частота кадров : 29,970 кадров/сек
Цветовое пространство : YUV
Субдискретизация насыщенности : 4:2:0
Битовая глубина : 8 бит
Тип развёртки : Прогрессивная
Метод сжатия : С потерями
Бит/(Пиксели*Кадры) : 0.217
Размер потока : 619 Мбайт (90%)
Библиотека кодирования : XviD 1.2.1 (UTC 2008-12-04)
Аудио
Идентификатор : 1
Формат : MPEG Audio
Версия формата : Version 1
Профиль формата : Layer 3
Режим : Joint stereo
Расширение режима : MS Stereo
Идентификатор кодека : 55
Идентификатор кодека/Подсказка : MP3
Продолжительность : 46 м.
Вид битрейта : Переменный
Битрейт : 192 Кбит/сек
Каналы : 2 канала
Частота : 48,0 КГц
Метод сжатия : С потерями
Размер потока : 62,1 Мбайт (9%)
Выравнивание : Соединение по промежуткам
Продолжительность промежутка : 24 мс. (0,72 видеокадр)
Время предзагрузки промежутка : 495 мс.
Библиотека кодирования : LAME3.97b
Настройки программы : -m j -V 4 -q 3 -lowpass 18.6 --abr 192
Раздача ведётся путём добавления новых серий; при каждом добавлении создаётся новый торрент. Чтобы начать докачку новой серии, пользователям необходимо сделать следующее:
(1) остановить скачивание,
(2) удалить старый торрент у себя из клиента (старые серии удалять не надо),
(3) скачать новый торрент и запустить его у себя в клиенте вместо старого, при этом указать клиенту путь в старую папку куда и должно происходить скачивание новых серий.
Ваш клиент при этом должен произвести хеширование (проверку) старой папки (если не производит сам - помогите ему сделать это), и будет докачивать только те серии которых у вас ещё нет. Старые серии при этом не удаляются, а продолжают раздаваться!
Eсли вы уже удалили старые серии, то предотвратить повторную закачку старых серий можно, отжав галочку в соответствующих местах при запуске нового торрента. По возможности, желательно не удалять старые серии как можно дольше чтобы релизёр не столько продолжал раздавать старые серии, а смог сконцентрироваться на новых.



Скачать Гримм.Grimm.(сезон.03).(Норберто.Барба.Терренс.О’Хара).[2013.ужасы.фэнтези.драма.детектив.WEB-DLRip].[MVO.(LostFilm)].torrent без регистрации
Золото ЗОЛОТАЯ РАЗДАЧА! СКАЧАННОЕ НЕ ЗАСЧИТЫВАЕТСЯ! Золото
Дата: Зарегистрирован   [ Тип: внутренний ] Как тут cкачать?
MAGNET ссылка
MAGNET ссылка


Скачать .torrent

31 KB

Статус: проверено DHT
Скачан: торрент - 5169 раз, раздача полностью - 209 раз
Размер: 11,37 GB
Оценка:  5 (Голосов: 1)
Поблагодарили: 5
Поделиться ссылкой на эту раздачу с друзьями:
В контактеFacebookОдноклассникиTwitterLivejournalМой МирLiveinternet
 

 

МихаНЕзатор

[] 

Раздача обновлена.
 

vladimir2785

[] 

и где это раздача что то не качает
 

МихаНЕзатор

[] 

Только что проверил, более 120 сидов, скорость скачивания у меня более 3 МБ/с, ищите причину у себя, ссылки в подписи.
 
Показать сообщения:    


Вы не можете начинать темы
Вы не можете отвечать на сообщения
Вы не можете редактировать свои сообщения
Вы не можете удалять свои сообщения
Вы не можете голосовать в опросах
Вы не можете прикреплять файлы к сообщениям
Вы можете скачивать файлы