Loading...
Error

Скачать Гримм / Grimm (сезон 3) (Марк Баклэнд) [2013, Ужасы, Фэнтези, Драма, WEB-DLRip (400р)] [MVO (LostFilm)]+[Original] торрент без регистрации

 
Статистика раздачи
Размер:  18,38 GB   |    Скачан:  7728 раз

Полного источника не было: 24 минуты

 
Автор Сообщение

МихаНЕзатор

[] 



Гримм / Grimm Сезон 3, Серия 1-19 (22)

«Not your usual suspects.»


Год выпуска:
2013
Страна: США
Жанр: Ужасы, Фэнтези, Драма
Продолжительность: ~ 45 мин
Перевод: Профессиональный многоголосый закадровый -
Режиссер: Марк Баклэнд
В ролях: Дэйв Гвинтоли, Расселл Хорнсби, Битси Таллоч, Сайлас Уэйр Митчелл, Саша Ройз, Регги Ли, Клэр Коффи, Айанна Беркшир, Кейт Бёртон, Тим Бэгли и др.
Описание: Молодой детектив Ник Бёркхардт является наследником рода Гримм - охотников за нечистью, живущей в мире людей.
Все потомки Гриммов обладают ключевой способностью - они могут видеть истинную сущность злых тварей, под какой бы личиной они не скрывались.
Соратником Ника становится перевоспитавшийся "Потрошитель" - оборотень Эдди Монро, помогающий ему познавать таинства древней мифологии.
Рип: >^Мурлыська^< Звук: k-marat-s
Качество: WEB-DLRip 400р Sample
Формат: AVI
Видео кодек: XviD
Аудио кодек: AC3
Видео: 720x400 (1.80:1), 23.976 fps, XviD, ~2000 kbps avg, 0.290 bit/pixel
Аудио #1: 48 kHz, AC3, 3/2 (L,C,R,l,r) + LFE ch, ~384.00 kbps avg
Аудио #2: 48 kHz, AC3, 3/2 (L,C,R,l,r) + LFE ch, ~384.00 kbps avg


АНОНСЫ ПОПУЛЯРНЫХ РАЗДАЧ


23.05.2014 г. торент обновлён, добавлена 20-22 серия, сезон завершён!

Неблагодарный мертвец (The Ungrateful Dead)
Посттравматический зомби-синдром (PTZD)
Блюдо, которое подают холодным (A Dish Best Served Cold)
На один раз (One Night Stand)
Кукуй (El Cucuy)
Сказки для наших малышей (Stories We Tell Our Young)
Хладнокровус (Cold Blooded)
Двенадцать дней Дрожьдества (Twelve Days of Krampus)
Красная угроза (Red Menace)
Глаза свидетеля (Eyes of the Beholder)
Хороший солдат (The Good Soldier)
Дикая охота (The Wild Hunt)
Откровение (Revelation)
Мама дорогая (Mommy Dearest)
Когда-то мы были богами (Once We Were Gods)
Шоу должно продолжаться (The Show Must Go On)
Синхроничность (Synchronicity)
Закон жертвы (The Law of Sacrifice)
Пришла Беда – отворяй ворота (Nobody Knows the Trubel I've Seen)
Моё прекрасное Существо (My Fair Wesen)
Наследие (The Inheritance)
Блондинка с амбициями (Blond Ambition)
General
Complete name : E:\Videos\Grimm Season 3.CasStudio.TV\Grimm.s03e01.rus.eng.CasStudio.TV.avi
Format : AVI
Format/Info : Audio Video Interleave
File size : 856 MiB
Duration : 42mn 59s
Overall bit rate : 2 782 Kbps
Writing application : VirtualDubModRus 1.5.10.2 (build 2542/release)
Writing library : VirtualDubMod build 2542/release
Video
ID : 0
Format : MPEG-4 Visual
Format profile : Advanced Simple@L5
Format settings, BVOP : 1
Format settings, QPel : No
Format settings, GMC : No warppoints
Format settings, Matrix : Default (MPEG)
Codec ID : XVID
Codec ID/Hint : XviD
Duration : 42mn 59s
Bit rate : 2 000 Kbps
Width : 720 pixels
Height : 400 pixels
Display aspect ratio : 16:9
Frame rate : 23.976 fps
Color space : YUV
Chroma subsampling : 4:2:0
Bit depth : 8 bits
Scan type : Progressive
Compression mode : Lossy
Bits/(Pixel*Frame) : 0.290
Stream size : 615 MiB (72%)
Writing library : XviD 64
Audio #1
ID : 1
Format : AC-3
Format/Info : Audio Coding 3
Mode extension : CM (complete main)
Codec ID : 2000
Duration : 42mn 59s
Bit rate mode : Constant
Bit rate : 384 Kbps
Channel(s) : 6 channels
Channel positions : Front: L C R, Side: L R, LFE
Sampling rate : 48.0 KHz
Bit depth : 16 bits
Compression mode : Lossy
Stream size : 118 MiB (14%)
Alignment : Split accross interleaves
Interleave, duration : 42 ms (1.00 video frame)
Interleave, preload duration : 500 ms
Audio #2
ID : 2
Format : AC-3
Format/Info : Audio Coding 3
Mode extension : CM (complete main)
Codec ID : 2000
Duration : 42mn 59s
Bit rate mode : Constant
Bit rate : 384 Kbps
Channel(s) : 6 channels
Channel positions : Front: L C R, Side: L R, LFE
Sampling rate : 48.0 KHz
Bit depth : 16 bits
Compression mode : Lossy
Stream size : 118 MiB (14%)
Alignment : Split accross interleaves
Interleave, duration : 42 ms (1.00 video frame)
Interleave, preload duration : 500 ms
Раздача ведётся путём добавления новых серий; при каждом добавлении создаётся новый торрент. Чтобы начать докачку новой серии, пользователям необходимо сделать следующее:
(1) остановить скачивание,
(2) удалить старый торрент у себя из клиента (старые серии удалять не надо),
(3) скачать новый торрент и запустить его у себя в клиенте вместо старого, при этом указать клиенту путь в старую папку куда и должно происходить скачивание новых серий.
Ваш клиент при этом должен произвести хеширование (проверку) старой папки (если не производит сам - помогите ему сделать это), и будет докачивать только те серии которых у вас ещё нет. Старые серии при этом не удаляются, а продолжают раздаваться!
Eсли вы уже удалили старые серии, то предотвратить повторную закачку старых серий можно, отжав галочку в соответствующих местах при запуске нового торрента. По возможности, желательно не удалять старые серии как можно дольше чтобы релизёр не столько продолжал раздавать старые серии, а смог сконцентрироваться на новых.




Скачать Гримм.Grimm.(сезон.3).(Марк.Баклэнд).[2013.Ужасы.Фэнтези.Драма.WEB-DLRip.(400р)].[MVO.(LostFilm)]+[Original].torrent без регистрации
Золото ЗОЛОТАЯ РАЗДАЧА! СКАЧАННОЕ НЕ ЗАСЧИТЫВАЕТСЯ! Золото
Дата: Зарегистрирован   [ Тип: внутренний ] Как тут cкачать?
MAGNET ссылка
MAGNET ссылка


Скачать .torrent

48 KB

Статус: проверено DHT
Скачан: торрент - 7728 раз, раздача полностью - 48 раз
Размер: 18,38 GB
Оценка:  5 (Голосов: 2)
Поблагодарили: 4
Поделиться ссылкой на эту раздачу с друзьями:
В контактеFacebookОдноклассникиTwitterLivejournalМой МирLiveinternet
 

 

МихаНЕзатор

[] 

Раздача обновлена.
 
Показать сообщения:    


Вы не можете начинать темы
Вы не можете отвечать на сообщения
Вы не можете редактировать свои сообщения
Вы не можете удалять свои сообщения
Вы не можете голосовать в опросах
Вы не можете прикреплять файлы к сообщениям
Вы можете скачивать файлы