Loading...
Error

Скачать Чак и Ларри: Пожарная свадьба / I Now Pronounce You Chuck and Larry (Деннис Дуган) [2007, мелодрама, комедия, BDRip] [Dub]+[Оригинал] торрент без регистрации

 
Статистика раздачи
Размер:  2,2 GB   |    Скачан:  237 раз
Сидов:  15  [  0 KB/s  ]   Личеров:  1  [  0 KB/s  ]  
 
Автор Сообщение

Marsianka

[] 

Чак и Ларри: Пожарная свадьба / I Now Pronounce You Chuck & Larry
Год выпуска: 2007
Страна: США
Жанр: мелодрама, комедия
Продолжительность: 01:55:22
Перевод: Профессиональный (полное дублирование)
Оригинальная аудиодорожка: английский
Субтитры: нет

Режиссер: Деннис Дуган / Dennis Dugan

В ролях: Адам Сэндлер, Кевин Джеймс, Джессика Бил, Дэн Эйкройд, Винг Реймз, Стив Бушеми, Николас Туртурро, Аллен Коверт, Рэйчел Дрэч, Ричард Чемберлен

Описание: Два холостых филадельфийских пожарных вляпываются в историю с самыми лучшими намерениями. Вдовец Ларри хочет лишь одного защитить свою семью. Его приятель Чак также хочет одного наслаждаться жизнью холостяка.
Чак благодарен Ларри за то, что тот вынес его из огня. А Ларри хочет застраховать свою жизнь так, чтобы страховку получили его дети. Для этого нужно только одно: записать в анкете, например, Чака своей половиной. Об этом вообще никто не должен был знать, так, формальность. И тогда они, гордость своей пожарной команды и верные друзья, решают изобразить из себя гомосексуальную пару, чтобы получить социальные льготы, предназначенные для семейных.



Качество: BDRip - Исходник Blu-Ray 1080p
Формат: AVI
Видео кодек: XviD
Аудио кодек: AC3
Видео: 704x384 (1.83:1), 23.976 fps, XviD build 73 ~1949 kbps avg, 0.30 bit/pixel
Аудио #1: 48 kHz, AC3 Dolby Digital, 3/2 (L,C,R,l,r) + LFE ch, ~384 kbps | Dub
Аудио #2: 48 kHz, AC3 Dolby Digital, 3/2 (L,C,R,l,r) + LFE ch, ~384 kbps | Original

Раздача от:
D:Мои рипыChuck.and.Larry.2007.BDRip.dexter_lex.avi
General
Complete name : D:Мои рипыChuck.and.Larry.2007.BDRip.dexter_lex.avi
Format : AVI
Format/Info : Audio Video Interleave
Format profile : OpenDML
File size : 2.20 GiB
Duration : 1h 55mn
Overall bit rate : 2 724 Kbps
Writing application : VirtualDubMod 1.5.10.3 | www.virtualdub-fr.org || (build 2550/release)
Writing library : VirtualDubMod build 2550/release
Video #0
ID : 0
Format : MPEG-4 Visual
Format profile : Advanced Simple@L5
Format settings, BVOP : 1
Format settings, QPel : No
Format settings, GMC : No warppoints
Format settings, Matrix : Custom
Codec ID : XVID
Codec ID/Hint : XviD
Duration : 1h 55mn
Bit rate : 1 939 Kbps
Width : 704 pixels
Height : 384 pixels
Display aspect ratio : 16:9
Frame rate : 23.976 fps
Color space : YUV
Chroma subsampling : 4:2:0
Bit depth : 8 bits
Scan type : Progressive
Compression mode : Lossy
Bits/(Pixel*Frame) : 0.299
Stream size : 1.56 GiB (71%)
Writing library : XviD 73
Audio #1
ID : 1
Format : AC-3
Format/Info : Audio Coding 3
Mode extension : CM (complete main)
Codec ID : 2000
Duration : 1h 55mn
Bit rate mode : Constant
Bit rate : 384 Kbps
Channel(s) : 6 channels
Channel positions : Front: L C R, Side: L R, LFE
Sampling rate : 48.0 KHz
Bit depth : 16 bits
Compression mode : Lossy
Stream size : 317 MiB (14%)
Alignment : Split accross interleaves
Interleave, duration : 42 ms (1.00 video frame)
Interleave, preload duration : 500 ms
Audio #2
ID : 2
Format : AC-3
Format/Info : Audio Coding 3
Mode extension : CM (complete main)
Codec ID : 2000
Duration : 1h 55mn
Bit rate mode : Constant
Bit rate : 384 Kbps
Channel(s) : 6 channels
Channel positions : Front: L C R, Side: L R, LFE
Sampling rate : 48.0 KHz
Bit depth : 16 bits
Compression mode : Lossy
Stream size : 317 MiB (14%)
Alignment : Split accross interleaves
Interleave, duration : 42 ms (1.00 video frame)
Interleave, preload duration : 500 ms



Скачать Чак.и.Ларри.Пожарная.свадьба.I.Now.Pronounce.You.Chuck.and.Larry.(Деннис.Дуган).[2007.мелодрама.комедия.BDRip].[Dub]+[Оригинал].torrent без регистрации
Золото ЗОЛОТАЯ РАЗДАЧА! СКАЧАННОЕ НЕ ЗАСЧИТЫВАЕТСЯ! Золото
Дата: Зарегистрирован   [ Тип: внешний ] Как тут cкачать?
MAGNET ссылка
MAGNET ссылка


Скачать .torrent

11 KB

Статус: проверено DHT
Скачан: торрент - 237 раз, раздача полностью - 201 раз
Размер: 2,2 GB
Оценка:  5 (Голосов: 1)
Поблагодарили: 2
Поделиться ссылкой на эту раздачу с друзьями:
В контактеFacebookОдноклассникиTwitterLivejournalМой МирLiveinternet
 

 
Показать сообщения:    


Вы не можете начинать темы
Вы не можете отвечать на сообщения
Вы не можете редактировать свои сообщения
Вы не можете удалять свои сообщения
Вы не можете голосовать в опросах
Вы не можете прикреплять файлы к сообщениям
Вы можете скачивать файлы