Loading...
Error

Скачать Не называй меня малышкой / Barb Wire (Дэвид Хоган) [1996, фантастика, боевик, BDRip] [DVO (Екатеринбург Арт)] торрент без регистрации

 
Статистика раздачи
Размер:  1,43 GB   |    Скачан:  103 раза
Сидов:  1  [  0 KB/s  ]  
 
Автор Сообщение

Marsianka

[] 

Не называй меня малышкой / Barb Wire
Страна: США
Жанр: фантастика, боевик
Год выпуска: 1996
Продолжительность: 01:38:20
Перевод: Профессиональный (двухголосый закадровый) Екатеринбург Арт
Cубтитры: нет
Оригинальная аудиодорожка: нет
Режиссер: Дэвид Хоган / David Hogan
В ролях: Памела Андерсон, Темуэра Моррисон, Виктория Роуэлл, Джек Ноузуорти, Ксандер Беркли, Удо Кир

Описание: 2017 год. Вторая гражданская война в Америке. Демократия свергнута, все живут под тиранией по законам военного времени. Только Стальная Бухта, последний свободный город, островок умирающей независимости, раздираемый хаосом и преступностью, дает приют нового рода наемникам. Дословно фильм переводится "Колючая проволока", но это имя и фамилия главной героини - Барб Уайер. Она дерется и стреляет так, что мужиков штабелями укладывает. Она владеет баром в Стальной Бухте, а жизнь здесь не легкая, и подрабатывает отловом сбежавших должников и преступников, за чьи головы объявлена награда. И вот в этот свободный городок сбежала Коринна Девоншайр, чернокожая активистка Сопротивления. Ее разыскивает полиция, наподобие Гестапо, и зрителю уже ясно, что не пересечься дорожки Барб и Коринны, сделавшей пластическую операцию, просто не могут. (Иванов М.)




Качество видео: BDRip
Формат видео: AVI
Видео: 720x384, 23.976 fps, MPEG-4 Visual, 1 880 Kbps
Аудио: 48 KHz, AC3, 2 ch, 192 Kbps
Сэмпл
General
Complete name : C:\Users\Сергей\Downloads\Не называй меня малышкой ЕА.avi
Format : AVI
Format/Info : Audio Video Interleave
File size : 1.43 GiB
Duration : 1h 38mn
Overall bit rate : 2 081 Kbps
Writing application : VirtualDubMod 1.5.10.2 (build 2540/release)
Writing library : VirtualDubMod build 2540/release
Video
ID : 0
Format : MPEG-4 Visual
Format profile : Advanced Simple@L5
Format settings, BVOP : 1
Format settings, QPel : No
Format settings, GMC : No warppoints
Format settings, Matrix : Custom
Codec ID : XVID
Codec ID/Hint : XviD
Duration : 1h 38mn
Bit rate : 1 880 Kbps
Width : 720 pixels
Height : 384 pixels
Display aspect ratio : 1.85:1
Frame rate : 23.976 fps
Color space : YUV
Chroma subsampling : 4:2:0
Bit depth : 8 bits
Scan type : Progressive
Compression mode : Lossy
Bits/(Pixel*Frame) : 0.284
Stream size : 1.29 GiB (90%)
Writing library : XviD 1.2.1 (UTC 2008-12-04)
Audio
ID : 1
Format : AC-3
Format/Info : Audio Coding 3
Mode extension : CM (complete main)
Format settings, Endianness : Big
Codec ID : 2000
Duration : 1h 38mn
Bit rate mode : Constant
Bit rate : 192 Kbps
Channel(s) : 2 channels
Channel positions : Front: L R
Sampling rate : 48.0 KHz
Bit depth : 16 bits
Compression mode : Lossy
Stream size : 135 MiB (9%)
Alignment : Split accross interleaves
Interleave, duration : 42 ms (1.00 video frame)
Interleave, preload duration : 500 ms



Скачать Не.называй.меня.малышкой.Barb.Wire.(Дэвид.Хоган).[1996.фантастика.боевик.BDRip].[DVO.(Екатеринбург.Арт)].torrent без регистрации
Золото ЗОЛОТАЯ РАЗДАЧА! СКАЧАННОЕ НЕ ЗАСЧИТЫВАЕТСЯ! Золото
Дата: Зарегистрирован   [ Тип: внутренний ] Как тут cкачать?
MAGNET ссылка
MAGNET ссылка


Скачать .torrent

15 KB

Статус: проверено DHT
Скачан: торрент - 103 раз, раздача полностью - 10 раз
Размер: 1,43 GB
Оценка:  - (Голосов: 0)
Поблагодарили: 1
Поделиться ссылкой на эту раздачу с друзьями:
В контактеFacebookОдноклассникиTwitterLivejournalМой МирLiveinternet
 

 
Показать сообщения:    


Вы не можете начинать темы
Вы не можете отвечать на сообщения
Вы не можете редактировать свои сообщения
Вы не можете удалять свои сообщения
Вы не можете голосовать в опросах
Вы не можете прикреплять файлы к сообщениям
Вы можете скачивать файлы