Loading...
Error

Скачать Толкачи / Наседки / Торговцы наркотой / Клокеры / Clockers (Спайк Ли) [1995, драма, криминал, BDRip] [MVO (1 Канал)]+[AVO (П. Санаев)] торрент без регистрации

 
Статистика раздачи
Размер:  1,64 GB   |    Скачан:  5378 раз
Сидов:  1  [  0 KB/s  ]  
 
Автор Сообщение

Marsianka

[] 

Толкачи / Наседки / Торговцы наркотой / Клокеры / Clockers
«When there's murder on the streets, everyone is a suspect»

Страна: США
Жанр: Драма, криминал
Год выпуска: 1995
Продолжительность: 02:08:21
Перевод 1: Профессиональный (многоголосый закадровый) [1 Канал]
Перевод 2: Авторский (одноголосый закадровый) [П. Санаев] (отдельно)
Cубтитры: нет
Режиссер: Спайк Ли / Spike Lee
В ролях: Харви Кайтел, Джон Туртурро, Делрой Линдо, Меки Файфер, Кит Дэвид, Реджина Тэйлор, Стики Фингаз
Описание: "Если черномазый не музыкант и не спортсмен, то он преступник" - эту простую истину доносит до зрителя Спайк Ли в новой серьезной криминальной драме с заявкой на психологическую глубину. Юный торговец наркотиками Страйк - клокер (от английского clock - часы), как их называют за то, что они торгуют круглосуточно - получает задание от своего босса убрать конкурента. Тот сказал об этом своему брату Виктору, а потом нам показывают уже результат - труп с четырьмя дырками от пуль. Харви Кайтел в роли следователя, который не верит, что убийство совершено Виктором, взявшим на себя вину, так как парень никаким криминалом вообще на занимался. Он начинает "копать", и у Страйка, итак больного и харкающего кровью, начинаются серьезные неприятности - босс считает, что он его заложил. Так кто же все таки исполнил убийство? Сценарий Ричарда Прайса и Спайка Ли по книге Ричарда Прайса дает ответ только в конце. Очень реалистично показана безысходность и обыденная жестокость этого мирка, торгующего белой смертью. (Иванов М.)
Sample | IMDB | КиноПоиск
Тип релиза: BDRip [исх. BD Remux 1080p]
Формат видео: AVI
Видео: 720x384 (1.88:1), 23.976 fps, XviD build 50, 1433 kbps avg, 0.22 bit/pixel
Аудио 1: 48 kHz, AC3 Dolby Digital, 2/0 (L,R) ch, 192.00 kbps avg [Russian_MVO]
Аудио 2: 48 kHz, AC3 Dolby Digital, 2/0 (L,R) ch, 192.00 kbps avg [Russian_AVO] (отдельно)

General
Complete name : D:\Мои раздачи\Clockers_BDRip_RG_All_Films\Clockers_BDRip_RG_All_Films.avi
Format : AVI
Format/Info : Audio Video Interleave
File size : 1.47 GiB
Duration : 2h 8mn
Overall bit rate : 1 635 Kbps
Writing application : VirtualDubMod 1.5.10.3
Writing library : VirtualDubMod build 2550/release
Video
ID : 0
Format : MPEG-4 Visual
Format profile : Advanced Simple@L5
Format settings, BVOP : Yes
Format settings, QPel : No
Format settings, GMC : No warppoints
Format settings, Matrix : Custom
Codec ID : XVID
Codec ID/Hint : XviD
Duration : 2h 8mn
Bit rate : 1 433 Kbps
Width : 720 pixels
Height : 384 pixels
Display aspect ratio : 1.875
Frame rate : 23.976 fps
Color space : YUV
Chroma subsampling : 4:2:0
Bit depth : 8 bits
Scan type : Progressive
Compression mode : Lossy
Bits/(Pixel*Frame) : 0.216
Stream size : 1.28 GiB (88%)
Writing library : XviD 1.2.1 (UTC 2008-12-04)
Audio
ID : 1
Format : AC-3
Format/Info : Audio Coding 3
Mode extension : CM (complete main)
Codec ID : 2000
Duration : 2h 8mn
Bit rate mode : Constant
Bit rate : 192 Kbps
Channel(s) : 2 channels
Channel positions : Front: L R
Sampling rate : 48.0 KHz
Bit depth : 16 bits
Compression mode : Lossy
Stream size : 176 MiB (12%)
Alignment : Split accross interleaves
Interleave, duration : 42 ms (1.00 video frame)
Interleave, preload duration : 500 ms
Audio 2 (отдельно)
Format : AC-3
Format/Info : Audio Coding 3
Mode extension : CM (complete main)
Duration : 2h 8mn
Bit rate mode : Constant
Bit rate : 192 Kbps
Channel(s) : 2 channels
Channel positions : Front: L R
Sampling rate : 48.0 KHz
Bit depth : 16 bits
Compression mode : Lossy
Stream size : 176 MiB (100%)



Скачать Толкачи.Наседки.Торговцы.наркотой.Клокеры.Clockers.(Спайк.Ли).[1995.драма.криминал.BDRip].[MVO.(1.Канал)]+[AVO.(П.Санаев)].torrent без регистрации
Золото ЗОЛОТАЯ РАЗДАЧА! СКАЧАННОЕ НЕ ЗАСЧИТЫВАЕТСЯ! Золото
Дата: Зарегистрирован   [ Тип: внутренний ] Как тут cкачать?
MAGNET ссылка
MAGNET ссылка


Скачать .torrent

17 KB

Статус: проверено DHT
Скачан: торрент - 5378 раз, раздача полностью - 2 раз
Размер: 1,64 GB
Оценка:  - (Голосов: 0)
Поблагодарили: 1
Поделиться ссылкой на эту раздачу с друзьями:
В контактеFacebookОдноклассникиTwitterLivejournalМой МирLiveinternet
 

 
Показать сообщения:    


Вы не можете начинать темы
Вы не можете отвечать на сообщения
Вы не можете редактировать свои сообщения
Вы не можете удалять свои сообщения
Вы не можете голосовать в опросах
Вы не можете прикреплять файлы к сообщениям
Вы можете скачивать файлы