Loading...
Error

Скачать Плутовство, или хвост виляет собакой / Wag the Dog (Барри Левинсон) [1997, комедия, драма, политическая сатира, HDTVRip-AVC] [VO (Евгений Гаевский)]+[MVO]+[Sub (Rus)]+[Oригинал (Eng)] торрент без регистрации

 
Статистика раздачи
Размер:  2,06 GB   |    Скачан:  188 раз
Сидов:  1  [  0 KB/s  ]  
 
Автор Сообщение

Marsianka

[] 

Плутовство, или хвост виляет собакой / Wag the Dog
Страна: США
Жанр: комедия, драма, политическая сатира
Год выпуска: 1997
Продолжительность: 1:36:54

Режиссер: Барри Левинсон / Barry Levinson
В ролях: Дастин Хоффман /Dustin Hoffman/, Роберт Де Ниро /Robert De Niro/, Вуди Хэррелсон /Woody Harrelson/, Энн Хеш /Anne Heche/, Денис Лири /Denis Leary/, Кэтрин О'Хара /Catherine O'Hara/, Уилли Нелсон /Willie Nelson/, Мерл Хаггард, Керстен Данст /Kirsten Dunst/, Джон Майкл Хиггинс /John Michael Higgins/, Сьюзи Плэксон /Suzie Plakson/, Уильям Х. Мэйси /William H. Macy/, Андреа Мартин /Andrea Martin/
Описание: По книге "Американский герой" Лэрри Байнхарта.
За несколько дней до выборов президент США завел в уголок девочку-скаута, и она объявила, что он приставал к ней с грязными намерениями. Срочно вызвали специалиста по такого рода проблемам (Роберт Де Ниро). Он нанимает кинопродюсера (Дастин Хоффман), и для всей страны раскручивается телеафера с несуществующей войной с Албанией, террористы которой хотят поразить бастион демократии украденной ядерной бомбой. Президент делает все, чтобы спасти мир. Пресса забывает о скандале с малолеткой. И когда пришлось выдумать сержанта Шумана, оставшегося за линией фронта в руках террористов, события окончательно приняли форму грандиозного шоу.
Очень неглупый фильм, прекрасно поставленный и сыгранный. Смотрится на одном дыхании.
Доп. информация: Работа со звуком и рип - Perevodman. В переводе Евгения Гаевского присутствует в небольшом объёме ненормативная лексика!





Качество видео: HDTVRip-AVC
Формат видео: MKV
Видео: 1690 Кбит/сек, 960*540 (16:9), в 23,976 кадра/сек, AVC

Сэмпл
Перевод: Одноголосый закадровый Евгений Гаевский
Перевод 2: Профессиональный (многоголосый закадровый)
Cубтитры: русские, английские
Оригинальная аудиодорожка: английский
Аудио: Russian, 448 Кбит/сек, 48,0 КГц, 16 бит, 6 каналов, АС-3 (Гаевский)
Аудио 2: Russian, 448 Кбит/сек, 48,0 КГц, 16 бит, 6 каналов, АС-3 (MVO)
Аудио 3: Russian, 448 Кбит/сек, 48,0 КГц, 16 бит, 6 каналов, АС-3 (Оригинал)
Формат субтитров: softsub (SRT)
Общее
Уникальный идентификатор : 230561512262869678863669875245625380016 (0xAD7488345D70F16099DC206C76300CB0)
Полное имя : F:\Новая папка\Wag.The.Dog.x264.Gaevsky.MVO.Eng.Subs\Wag.The.Dog.x264.Gaevsky.MVO.Eng.Subs.mkv
Формат : Matroska
Версия формата : Version 4 / Version 2
Размер файла : 2,06 Гбайт
Продолжительность : 1 ч. 36 м.
Режим общего битрейта : Переменный
Общий поток : 3036 Кбит/сек
Название фильма : Релиз Переулка Переводмана
Дата кодирования : UTC 2013-12-09 14:27:19
Программа кодирования : mkvmerge v6.0.0 ('Coming Up For Air') built on Jan 20 2013 09:52:00
Библиотека кодирования : libebml v1.3.0 + libmatroska v1.4.0
Attachment : Wag_The_Dog_Gaevsky.jpg
Видео
Идентификатор : 1
Формат : AVC
Формат/Информация : Advanced Video Codec
Профиль формата : High@L4.1
Параметр CABAC формата : Да
Параметр ReFrames формата : 16 кадров
Идентификатор кодека : V_MPEG4/ISO/AVC
Продолжительность : 1 ч. 36 м.
Вид битрейта : Переменный
Битрейт : 1690 Кбит/сек
Максимальный битрейт : 50,0 Мбит/сек
Ширина : 960 пикселей
Высота : 540 пикселей
Соотношение сторон : 16:9
Режим частоты кадров : Постоянный
Частота кадров : 23,976 кадра/сек
Цветовое пространство : YUV
Субдискретизация насыщенности : 4:2:0
Битовая глубина : 8 бит
Тип развёртки : Прогрессивная
Бит/(Пиксели*Кадры) : 0.136
Размер потока : 1,10 Гбайт (54%)
Заголовок : x264
Библиотека кодирования : x264 core 133 r2334 a3ac64b
Настройки программы : cabac=1 / ref=16 / deblock=1:-3:-3 / analyse=0x3:0x133 / me=umh / subme=10 / psy=1 / psy_rd=1.00:0.00 / mixed_ref=1 / me_range=32 / chroma_me=1 / trellis=2 / 8x8dct=1 / cqm=0 / deadzone=21,11 / fast_pskip=0 / chroma_qp_offset=-2 / threads=6 / lookahead_threads=1 / sliced_threads=0 / nr=0 / decimate=0 / interlaced=0 / bluray_compat=0 / constrained_intra=0 / bframes=16 / b_pyramid=2 / b_adapt=2 / b_bias=0 / direct=3 / weightb=1 / open_gop=0 / weightp=2 / keyint=240 / keyint_min=23 / scenecut=40 / intra_refresh=0 / rc_lookahead=60 / rc=2pass / mbtree=1 / bitrate=1690 / ratetol=1.0 / qcomp=0.60 / qpmin=10 / qpmax=51 / qpstep=4 / cplxblur=20.0 / qblur=0.5 / vbv_maxrate=50000 / vbv_bufsize=62500 / nal_hrd=vbr / ip_ratio=1.40 / aq=1:1.00
Язык : English
Default : Да
Forced : Нет
Аудио #1
Идентификатор : 2
Формат : AC-3
Формат/Информация : Audio Coding 3
Расширение режима : CM (complete main)
Параметр Endianness формата : Big
Идентификатор кодека : A_AC3
Продолжительность : 1 ч. 36 м.
Вид битрейта : Постоянный
Битрейт : 448 Кбит/сек
Каналы : 6 каналов
Расположение каналов : Front: L C R, Side: L R, LFE
Частота : 48,0 КГц
Битовая глубина : 16 бит
Метод сжатия : С потерями
Размер потока : 311 Мбайт (15%)
Заголовок : AVO Евгений Гаевский
Язык : Russian
Default : Да
Forced : Нет
Аудио #2
Идентификатор : 3
Формат : AC-3
Формат/Информация : Audio Coding 3
Расширение режима : CM (complete main)
Параметр Endianness формата : Big
Идентификатор кодека : A_AC3
Продолжительность : 1 ч. 36 м.
Вид битрейта : Постоянный
Битрейт : 448 Кбит/сек
Каналы : 6 каналов
Расположение каналов : Front: L C R, Side: L R, LFE
Частота : 48,0 КГц
Битовая глубина : 16 бит
Метод сжатия : С потерями
Размер потока : 311 Мбайт (15%)
Заголовок : MVO
Язык : Russian
Default : Нет
Forced : Нет
Аудио #3
Идентификатор : 4
Формат : AC-3
Формат/Информация : Audio Coding 3
Расширение режима : CM (complete main)
Параметр Endianness формата : Big
Идентификатор кодека : A_AC3
Продолжительность : 1 ч. 36 м.
Вид битрейта : Постоянный
Битрейт : 448 Кбит/сек
Каналы : 6 каналов
Расположение каналов : Front: L C R, Side: L R, LFE
Частота : 48,0 КГц
Битовая глубина : 16 бит
Метод сжатия : С потерями
Размер потока : 311 Мбайт (15%)
Заголовок : Original
Язык : English
Default : Нет
Forced : Нет
Текст #1
Идентификатор : 5
Формат : UTF-8
Идентификатор кодека : S_TEXT/UTF8
Идентификатор кодека/Информация : UTF-8 Plain Text
Язык : Russian
Default : Нет
Forced : Нет
Текст #2
Идентификатор : 6
Формат : UTF-8
Идентификатор кодека : S_TEXT/UTF8
Идентификатор кодека/Информация : UTF-8 Plain Text
Язык : English
Default : Нет
Forced : Нет



Скачать Плутовство.или.хвост.виляет.собакой.Wag.the.Dog.(Барри.Левинсон).[1997.комедия.драма.политическая.сатира.HDTVRip-AVC].[VO.(Евгений.Гаевский)]+[MVO]+[Sub.(Rus)]+[Oригинал.(Eng)].torrent без регистрации
Золото ЗОЛОТАЯ РАЗДАЧА! СКАЧАННОЕ НЕ ЗАСЧИТЫВАЕТСЯ! Золото
Дата: Зарегистрирован   [ Тип: внутренний ] Как тут cкачать?
MAGNET ссылка
MAGNET ссылка


Скачать .torrent

11 KB

Статус: проверено DHT
Скачан: торрент - 188 раз, раздача полностью - 47 раз
Размер: 2,06 GB
Оценка:  - (Голосов: 0)
Поблагодарили: 0
Поделиться ссылкой на эту раздачу с друзьями:
В контактеFacebookОдноклассникиTwitterLivejournalМой МирLiveinternet
 

 
Показать сообщения:    


Вы не можете начинать темы
Вы не можете отвечать на сообщения
Вы не можете редактировать свои сообщения
Вы не можете удалять свои сообщения
Вы не можете голосовать в опросах
Вы не можете прикреплять файлы к сообщениям
Вы можете скачивать файлы