Loading...
Error

Скачать Улыбка / Le sourire (Клод Миллер) [1994, драма, комедия, VHSRip] [VO] торрент без регистрации

 
Статистика раздачи
Размер:  699 MB   |    Скачан:  111 раз
Сидов:  1  [  0 KB/s  ]  
 
Автор Сообщение

Marsianka

[] 

Улыбка / Le sourire
Страна: Франция
Жанр: драма, комедия
Год выпуска: 1994
Продолжительность: 01:25:51
Перевод: Одноголосый закадровый
Cубтитры: нет
Режиссер: Клод Миллер / Claude Miller
В ролях: Жан-Пьер Марьель
Ришар Боренже
Эмманюэль Сенье
Шанталь Банлье
Надя Барантен
Натали Кардон
Майте Наир
Кристин Паскаль
Бернар Верле
Жан-Поль Боннер
Описание: После того, как старый психиатр Пьер Франсуа понимает, что вряд ли избежит инфаркта, он физически привязывается к чувственной молодой женщине Одиль. Впоследствии Одиль использует их отношения, чтобы исполнить ее эксгибиционистские фантазии.



Качество видео: VHSRip
Формат видео: AVI
Видео: 592x352 (1.68:1), 25 fps, XviD build 47 ~1000 kbps avg, 0.19 bit/pixel
Аудио: 48 kHz, MPEG Layer 3, 2 ch, ~128.00 kbps avg
Улыбка - Le sourire [by alenavova].avi
Format : AVI
Format/Info : Audio Video Interleave
File size : 699 MiB
Duration : 1h 25mn
Overall bit rate : 1 139 Kbps
Movie name : Улыбка - Le sourire [by alenavova]
Director : Rip by alenavova
Writing application : FairUse Wizard - http://fairusewizard.com
Copyright : Edich2
Comment : RuTracker.org
Video
ID : 0
Format : MPEG-4 Visual
Format profile : Advanced Simple@L5
Format settings, BVOP : 1
Format settings, QPel : No
Format settings, GMC : No warppoints
Format settings, Matrix : Default (H.263)
Codec ID : XVID
Codec ID/Hint : XviD
Duration : 1h 25mn
Bit rate : 1 001 Kbps
Width : 592 pixels
Height : 352 pixels
Display aspect ratio : 1.682
Frame rate : 25.000 fps
Color space : YUV
Chroma subsampling : 4:2:0
Bit depth : 8 bits
Scan type : Progressive
Compression mode : Lossy
Bits/(Pixel*Frame) : 0.192
Stream size : 615 MiB (88%)
Writing library : XviD 1.2.0.dev47 (UTC 2006-11-01)
Audio
ID : 1
Format : MPEG Audio
Format version : Version 1
Format profile : Layer 3
Mode : Joint stereo
Mode extension : MS Stereo
Codec ID : 55
Codec ID/Hint : MP3
Duration : 1h 25mn
Bit rate mode : Constant
Bit rate : 128 Kbps
Channel count : 2 channels
Sampling rate : 48.0 KHz
Compression mode : Lossy
Stream size : 78.6 MiB (11%)
Alignment : Aligned on interleaves
Interleave, duration : 40 ms (1.00 video frame)
Interleave, preload duration : 504 ms
Writing library : LAME3.977лкЇ¬€AШ‚мE



Скачать Улыбка.Le.sourire.(Клод.Миллер).[1994.драма.комедия.VHSRip].[VO].torrent без регистрации
Золото ЗОЛОТАЯ РАЗДАЧА! СКАЧАННОЕ НЕ ЗАСЧИТЫВАЕТСЯ! Золото
Дата: Зарегистрирован   [ Тип: внутренний ] Как тут cкачать?
MAGNET ссылка
MAGNET ссылка


Скачать .torrent

14 KB

Статус: проверено DHT
Скачан: торрент - 111 раз, раздача полностью - 3 раз
Размер: 699 MB
Оценка:  5 (Голосов: 1)
Поблагодарили: 1
Поделиться ссылкой на эту раздачу с друзьями:
В контактеFacebookОдноклассникиTwitterLivejournalМой МирLiveinternet
 

 

19Soldier78

[] 

Довольно интересный фильм
Эмманюэль Сенье просто прелесть
Но хотелось бы, если не в дубляже или многоголоске, то хотя бы в приличном двухголосном
За кино
 
Показать сообщения:    


Вы не можете начинать темы
Вы не можете отвечать на сообщения
Вы не можете редактировать свои сообщения
Вы не можете удалять свои сообщения
Вы не можете голосовать в опросах
Вы не можете прикреплять файлы к сообщениям
Вы можете скачивать файлы