Loading...
Error

Скачать Гарри Поттер и Принц-полукровка / Harry Potter and the Half-Blood Prince (Дэвид Йэтс) [2009, фэнтези, приключения, семейный, BDRip-AVC] [Dub]+[Oригинал]+[Sub (Rus, Eng)] торрент без регистрации

 
Статистика раздачи
Размер:  2,9 GB   |    Скачан:  271 раз
Сидов:  1  [  0 KB/s  ]  
 
Автор Сообщение

Marsianka

[] 

Гарри Поттер и Принц-полукровка / Harry Potter and the Half-Blood Prince
«Секрет темных сил раскрыт»

Страна: Великобритания , США
Жанр: Фэнтези, Детектив, Приключения, Семейный
Год выпуска: 2009
Продолжительность: 02:33:30

Режиссер: Дэвид Йэтс / David Yates
В ролях: Дэниэл Рэдклифф
, Руперт Гринт, Эмма Уотсон, Майкл Гэмбон, Джим Бродбент, Бонни Райт, Хелена Бонем Картер, Алан Рикман, Том Фелтон, Эванна Линч и др.
Описание:
Теперь не только мир волшебников, но и мир маглов ощущает на себе все возрастающую силу Волан-де-Морта, а Хогвартс уже никак не назовешь надежным убежищем, каким он был раньше. Гарри подозревает, что в самом замке затаилась некая опасность, но Дамблдор больше сосредоточен на том, чтобы подготовить его к финальной схватке, которая, как он знает, уже не за горами. Вместе они пытаются разгадать секрет бессмертия Волан-де-Морта, а для этого Дамблдор приглашает на должность преподавателя по зельеварению своего старинного друга и коллегу — профессора Горация Слизнорта, который обожает устраивать вечеринки для избранных и гордится своими обширными связями в высших кругах. Но этот бонвиван и не подозревает, что как раз от него Дамблдор надеется заполучить самую важную информацию о крестражах.
Тем временем учеников атакуют самые разные враги, а подростковые эмоции хлещут через край. Гарри начинает понимать, что становится все более неравнодушным к Джинни, однако, и Дин Томас тоже. А Лаванда Браун вбила себе в голову, что Рон — тот самый единственный, которого она ждет, да вот только не учла волшебного эффекта шоколадных конфет Ромильды Вейн! Ну и, наконец, Гермиона пылает жгучей ревностью, но старается не показывать своих чувств. Пока романтические отношения расцветают, лишь один ученик остается в стороне. Он твердо намерен оставить свою метку, темную метку. Любовь витает в воздухе, но впереди ждет беда, и Хогвартс, возможно, уже никогда не будет прежним.



Качество видео: BDRip-AVC | [HARRY_POTTER_COLLECTION_HDCLUB]
Формат видео: MKV
Видео: 1152x480 (2,40:1), 23,976 fps, x264 ~1930 kbps avg, 0.146 bit/pixel
Аудио #1: AC3 Dolby Digital / 48 KHz / 384 kbps / 3/2 (L,C,R,l,r) + LFE ch| Dub (CEE)
Аудио #2: AC3 Dolby Digital / 48 KHz / 384 kbps / 3/2 (L,C,R,l,r) + LFE ch| Original (English)
Перевод: Профессиональный (полное дублирование, CEE)
Оригинальная аудиодорожка: Английский
Cубтитры: Русские (полные, форсированные), Английские (полные) (*srt)
avs [info]: 1152x480p 1:1 @ 2997/125 fps (cfr)
x264 [warning]: --psnr used with psy on: results will be invalid!
x264 [warning]: --tune psnr should be used if attempting to benchmark psnr!
x264 [info]: using SAR=1/1
x264 [info]: using cpu capabilities: MMX2 SSE2Fast SSSE3 SSE4.2 AVX AVX2 FMA3 LZCNT BMI1 BMI2
x264 [info]: profile High, level 4.0
x264 [info]: frame I:1646 Avg QP:14.25 size: 63610 PSNR Mean Y:49.66 U:53.17 V:54.03 Avg:50.59 Global:50.06
x264 [info]: frame P:39919 Avg QP:16.88 size: 22303 PSNR Mean Y:47.82 U:51.88 V:52.88 Avg:48.82 Global:48.04
x264 [info]: frame B:179275 Avg QP:18.69 size: 6843 PSNR Mean Y:47.09 U:51.57 V:52.70 Avg:48.16 Global:47.27
x264 [info]: consecutive B-frames: 1.5% 0.9% 3.3% 9.9% 12.9% 45.2% 8.2% 9.7% 2.8% 2.5% 1.2% 2.0%
x264 [info]: mb I I16..4: 11.7% 67.7% 20.6%
x264 [info]: mb P I16..4: 1.8% 7.5% 0.9% P16..4: 31.6% 35.6% 12.1% 2.3% 0.2% skip: 7.9%
x264 [info]: mb B I16..4: 0.1% 0.6% 0.1% B16..8: 32.8% 18.0% 2.6% direct: 4.2% skip:41.6% L0:43.7% L1:44.5% BI:11.8%
x264 [info]: 8x8 transform intra:72.5% inter:48.4%
x264 [info]: direct mvs spatial:96.9% temporal:3.1%
x264 [info]: coded y,uvDC,uvAC intra: 77.5% 71.5% 51.8% inter: 17.9% 12.2% 5.2%
x264 [info]: i16 v,h,dc,p: 55% 8% 10% 27%
x264 [info]: i8 v,h,dc,ddl,ddr,vr,hd,vl,hu: 10% 8% 10% 9% 13% 12% 12% 12% 14%
x264 [info]: i4 v,h,dc,ddl,ddr,vr,hd,vl,hu: 11% 8% 8% 9% 14% 14% 13% 11% 13%
x264 [info]: i8c dc,h,v,p: 34% 33% 20% 13%
x264 [info]: Weighted P-Frames: Y:8.8% UV:4.3%
x264 [info]: ref P L0: 48.4% 8.0% 15.5% 7.8% 5.9% 4.6% 3.8% 2.3% 1.9% 1.6% 0.2% 0.0%
x264 [info]: ref B L0: 71.7% 14.0% 6.0% 2.9% 2.0% 1.5% 1.2% 0.5% 0.2%
x264 [info]: ref B L1: 91.8% 8.2%
x264 [info]: SSIM Mean Y:0.9861048 (18.571db)
x264 [info]: PSNR Mean Y:47.245 U:51.638 V:52.742 Avg:48.297 Global:47.417 kb/s:1929.64
x264 [total]: encoded 220840 frames, 8.98 fps, 1929.64 kb/s

Формат : Matroska
Версия формата : Version 4 / Version 2
Размер файла : 2,90 Гбайт
Продолжительность : 2 ч. 33 м.
Общий поток : 2700 Кбит/сек
Дата кодирования : UTC 2013-11-28 12:54:26
Программа кодирования : mkvmerge v6.1.0 ('Old Devil') built on Mar 4 2013 09:10:42
Библиотека кодирования : libebml v1.3.0 + libmatroska v1.4.0
Видео
Идентификатор : 1
Формат : AVC
Формат/Информация : Advanced Video Codec
Профиль формата : High@L4.0
Параметр CABAC формата : Да
Параметр ReFrames формата : 10 кадров
Идентификатор кодека : V_MPEG4/ISO/AVC
Продолжительность : 2 ч. 33 м.
Битрейт : 1930 Кбит/сек
Ширина : 1152 пикселя
Высота : 480 пикселей
Соотношение сторон : 2,40:1
Режим частоты кадров : Постоянный
Частота кадров : 23,976 кадра/сек
Цветовое пространство : YUV
Субдискретизация насыщенности : 4:2:0
Битовая глубина : 8 бит
Тип развёртки : Прогрессивная
Бит/(Пиксели*Кадры) : 0.146
Размер потока : 2,01 Гбайт (70%)
Заголовок : Harry.Potter.And.The.Half-blood.Prince.2009.DUAL.BDRip-AVC.AC3.-AngelOfTrue
Библиотека кодирования : x264 core 130 r2273 b3065e6
Настройки программы : cabac=1 / ref=10 / deblock=1:-3:-2 / analyse=0x3:0x133 / me=umh / subme=11 / psy=1 / psy_rd=1.00:0.10 / mixed_ref=1 / me_range=32 / chroma_me=1 / trellis=2 / 8x8dct=1 / cqm=0 / deadzone=21,11 / fast_pskip=0 / chroma_qp_offset=-3 / threads=6 / lookahead_threads=1 / sliced_threads=0 / nr=0 / decimate=0 / interlaced=0 / bluray_compat=0 / constrained_intra=0 / bframes=11 / b_pyramid=2 / b_adapt=2 / b_bias=0 / direct=3 / weightb=1 / open_gop=0 / weightp=2 / keyint=250 / keyint_min=23 / scenecut=40 / intra_refresh=0 / rc=2pass / mbtree=0 / bitrate=1930 / ratetol=1.0 / qcomp=0.65 / qpmin=10 / qpmax=51 / qpstep=4 / cplxblur=20.0 / qblur=0.5 / ip_ratio=1.35 / pb_ratio=1.25 / aq=2:1.00
Язык : Russian
Default : Да
Forced : Нет
Аудио #1
Идентификатор : 2
Формат : AC-3
Формат/Информация : Audio Coding 3
Расширение режима : CM (complete main)
Параметр Endianness формата : Big
Идентификатор кодека : A_AC3
Продолжительность : 2 ч. 33 м.
Вид битрейта : Постоянный
Битрейт : 384 Кбит/сек
Каналы : 6 каналов
Расположение каналов : Front: L C R, Side: L R, LFE
Частота : 48,0 КГц
Битовая глубина : 16 бит
Метод сжатия : С потерями
Размер потока : 422 Мбайт (14%)
Заголовок : Dub (CEE)
Язык : Russian
Default : Да
Forced : Нет
Аудио #2
Идентификатор : 3
Формат : AC-3
Формат/Информация : Audio Coding 3
Расширение режима : CM (complete main)
Параметр Endianness формата : Big
Идентификатор кодека : A_AC3
Продолжительность : 2 ч. 33 м.
Вид битрейта : Постоянный
Битрейт : 384 Кбит/сек
Каналы : 6 каналов
Расположение каналов : Front: L C R, Side: L R, LFE
Частота : 48,0 КГц
Битовая глубина : 16 бит
Метод сжатия : С потерями
Размер потока : 422 Мбайт (14%)
Заголовок : Original (English)
Язык : English
Default : Нет
Forced : Нет
Текст #1
Идентификатор : 4
Формат : UTF-8
Идентификатор кодека : S_TEXT/UTF8
Идентификатор кодека/Информация : UTF-8 Plain Text
Заголовок : Russian (for)
Язык : Russian
Default : Да
Forced : Да
Текст #2
Идентификатор : 5
Формат : UTF-8
Идентификатор кодека : S_TEXT/UTF8
Идентификатор кодека/Информация : UTF-8 Plain Text
Заголовок : Russian (full)
Язык : Russian
Default : Нет
Forced : Нет
Текст #3
Идентификатор : 6
Формат : UTF-8
Идентификатор кодека : S_TEXT/UTF8
Идентификатор кодека/Информация : UTF-8 Plain Text
Заголовок : English (full)
Язык : English
Default : Нет
Forced : Нет




Скачать Гарри.Поттер.и.Принц-полукровка.Harry.Potter.and.the.Half-Blood.Prince.(Дэвид.Йэтс).[2009.фэнтези.приключения.семейный.BDRip-AVC].[Dub]+[Oригинал]+[Sub.(Rus.Eng)].torrent без регистрации
Золото ЗОЛОТАЯ РАЗДАЧА! СКАЧАННОЕ НЕ ЗАСЧИТЫВАЕТСЯ! Золото
Дата: Зарегистрирован   [ Тип: внутренний ] Как тут cкачать?
MAGNET ссылка
MAGNET ссылка


Скачать .torrent

15 KB

Статус: проверено DHT
Скачан: торрент - 271 раз, раздача полностью - 293 раз
Размер: 2,9 GB
Оценка:  5 (Голосов: 2)
Поблагодарили: 2
Поделиться ссылкой на эту раздачу с друзьями:
В контактеFacebookОдноклассникиTwitterLivejournalМой МирLiveinternet
 

 
Показать сообщения:    


Вы не можете начинать темы
Вы не можете отвечать на сообщения
Вы не можете редактировать свои сообщения
Вы не можете удалять свои сообщения
Вы не можете голосовать в опросах
Вы не можете прикреплять файлы к сообщениям
Вы можете скачивать файлы