Loading...
Error

Скачать Анатомия страсти / Анатомия Грей / Grey's Anatomy (10х1-8 из 24) (Роб Корн) [2013, драма, мелодрама, HDTV 1080i] [MVO (Fox Life)] торрент без регистрации

 
Статистика раздачи
Размер:  15,92 GB   |    Скачан:  324 раза
Сидов:  1  [  0 KB/s  ]  
 
Автор Сообщение

МихаНЕзатор

[] 

Анатомия страсти / Анатомия Грей / Grey's Anatomy


Год выпуска: 2013
Страна: США
Жанр: драма, мелодрама
Продолжительность: ~41 мин
Перевод: Профессиональный (многоголосый закадровый) Fox Life
Режиссёр: Роб Корн / Rob Corn

В ролях: Эллен Помпео в роли Мередит Грей, Патрик Демпси в роли Дерека Шепарда, Сандра О в роли Кристины Янг, Джастин Чемберс в роли Алекса Карева, Чандра Уилсон в роли Миранды Бейли, Джеймс Пикенс мл. в роли Ричарда Вебера, Сара Рамирез в роли Келли Торрес, Кевин МакКидд в роли Оуэна Ханта, Джессика Кэпшоу в роли Аризоны Роббинс, Джесси Уильямс в роли Джексона Эйвери, Сара Дрю в роли Эйприл Кепнер, Камилла Ладингтон в роли Джо Уилсон, Гай Чарльз в роли Шейна Росса, Джеррика Хинтон в роли Стэфани Эдвардс и Тесса Феррер в роли Леа Мерфи

Описание:
Главная героиня Мередит Грей — молодая женщина-хирург, работает в городской больнице Сиэтла. Ее окружают интерны с разными характерами, но общей целью – стать хорошими врачами. Они молоды, целеустремленны и настолько красивы, что даже медицинская форма им к лицу.
12 главных героев одновременно конкуренты и любовники, и поэтому их ждет целая буря страстей: служебные романы и влюбленности в пациентов, любовные измены и профессиональные предательства, медицинские ошибки и катастрофы в личной жизни, врачебные тайны и личные секреты. В стенах больницы Сиэтла тесно переплелись любовь, долг, болезнь и смерть.



Качество: HDTV 1080i
Контейнер: MKV
Видео: AVC, 1920х1080 (16:9), 25 fps, ~7000 kbps, ~0.140 bit/pixel
Аудио: Русский, MVO FOX Life, MP2, 48 kHz, 2 ch, 192 kbps
Субтитры: отсутствуют
Внимание! Раздача ведётся путём добавления новых серий; при каждом добавлении создаётся новый торрент. Чтобы начать докачку новой серии, пользователям необходимо сделать следующее:
(1) остановить скачивание,
(2) удалить старый торрент у себя из клиента (старые серии удалять не надо),
(3) скачать новый торрент и запустить его у себя в клиенте вместо старого, при этом указать клиенту путь в старую папку куда и должно происходить скачивание новых серий.
Ваш клиент при этом должен произвести хеширование (проверку) старой папки (если не производит сам - помогите ему сделать это), и будет докачивать только те серии которых у вас ещё нет. Старые серии при этом не удаляются, а продолжают раздаваться!
Eсли вы уже удалили старые серии, то предотвратить повторную закачку старых серий можно, отжав галочку в соответствующих местах при запуске нового торрента. По возможности, желательно не удалять старые серии как можно дольше чтобы релизёр не столько продолжал раздавать старые серии, а смог сконцентрироваться на новых.
Серия#1 Судьба / Seal Our Fate
Серия#2 Будь со мной / I Want You With Me
Серия#3 Милосердие / Everybody's Crying Mercy
Серия#4 Разодеться в пух и прах / Puttin' on the Ritz
Серия#5 Наверно, было больно / I Bet It Stung
Серия#6 Карта / Map of You
General
Unique ID : 210753262907750136873178504841854876523 (0x9E8D9A1C174E0B72B8F1023878767B6B)
Complete name : E:\Video\Torrents\greys_anatomy.s10.rus.hdtvrip.1080i.foxlife\greys_anatomy.s10e01.rus.hdtvrip.1080i.foxlife.mkv
Format : Matroska
Format version : Version 2
File size : 2.23 GiB
Duration : 41mn 13s
Overall bit rate : 7 728 Kbps
Encoded date : UTC 2013-11-09 17:24:00
Writing application : mkvmerge v6.3.0 ('You can't stop me!') built on Jun 28 2013 20:09:41
Writing library : libebml v1.3.0 + libmatroska v1.4.0
Video
ID : 1
Format : AVC
Format/Info : Advanced Video Codec
Format profile : Main@L4.0
Format settings, CABAC : Yes
Format settings, ReFrames : 3 frames
Codec ID : V_MPEG4/ISO/AVC
Duration : 41mn 13s
Bit rate : 7 382 Kbps
Width : 1 920 pixels
Height : 1 080 pixels
Display aspect ratio : 16:9
Frame rate mode : Constant
Frame rate : 25.000 fps
Standard : Component
Color space : YUV
Chroma subsampling : 4:2:0
Bit depth : 8 bits
Scan type : Interlaced
Scan order : Top Field First
Bits/(Pixel*Frame) : 0.142
Stream size : 2.13 GiB (96%)
Default : Yes
Forced : No
Color primaries : BT.709
Transfer characteristics : BT.709
Matrix coefficients : BT.709
Audio
ID : 2
Format : MPEG Audio
Format version : Version 1
Format profile : Layer 2
Codec ID : A_MPEG/L2
Codec ID/Hint : MP2
Duration : 41mn 13s
Bit rate mode : Constant
Bit rate : 192 Kbps
Channel(s) : 2 channels
Sampling rate : 48.0 KHz
Compression mode : Lossy
Stream size : 56.6 MiB (2%)
Language : Russian
Default : Yes
Forced : No



Скачать Анатомия.страсти.Анатомия.Грей.Grey's.Anatomy.(10х1-8.из.24).(Роб.Корн).[2013.драма.мелодрама.HDTV.1080i].[MVO.(Fox.Life)].torrent без регистрации
Золото ЗОЛОТАЯ РАЗДАЧА! СКАЧАННОЕ НЕ ЗАСЧИТЫВАЕТСЯ! Золото
Дата: Зарегистрирован   [ Тип: внутренний ] Как тут cкачать?
MAGNET ссылка
MAGNET ссылка


Скачать .torrent

41 KB

Статус: проверено DHT
Скачан: торрент - 324 раз, раздача полностью - 0 раз
Размер: 15,92 GB
Оценка:  5 (Голосов: 1)
Поблагодарили: 1
Поделиться ссылкой на эту раздачу с друзьями:
В контактеFacebookОдноклассникиTwitterLivejournalМой МирLiveinternet
 

 

leon030982

[] 

обновлено!
 
Показать сообщения:    


Вы не можете начинать темы
Вы не можете отвечать на сообщения
Вы не можете редактировать свои сообщения
Вы не можете удалять свои сообщения
Вы не можете голосовать в опросах
Вы не можете прикреплять файлы к сообщениям
Вы можете скачивать файлы