Loading...
Error

Скачать Агенты Щ.И.Т. / Agents of S.H.I.E.L.D. (сезон 01) (Джесси Бокко, Милан Чейлов и др.) [2013, приключения, фантастика, WEB-DL] [720p] [MVO (LostFilm)]+[Dub (Невафильм)]+[Eng]+[Sub Tng] торрент без регистрации

 
Статистика раздачи
Размер:  51,89 GB   |    Скачан:  236 раз

Полного источника не было: 26 минут

 
Автор Сообщение

МихаНЕзатор

[] 

Информация о сериале
Название: Агенты Щ.И.Т.
Оригинальное название: Agents of S.H.I.E.L.D.
Годы выхода: 2013-2014
Жанр: фантастика, боевик, драма
Авторы идеи: Джосс Уидон /Joss Whedon/, Джед Уидон /Jed Whedon/, Морисса Танчароэн /Maurissa Tancharoen/
Режиссеры: Винс Мисиано /Vince Misiano/, Билл Джирхарт /Bill Gierhart/, Бобби Рот /Bobby Roth/ и др.
В ролях: Кларк Грегг /Clark Gregg/, Минг-На /Ming-Na/, Бретт Далтон /Brett Dalton/, Хлоя Беннет /Chloe Bennet/, Йен де Кестекер /Iain De Caestecker/, Элизабет Хенстридж /Elizabeth Henstridge/, Дж. Аугуст Ричардс /J. August Richards/, Дэвид Конрад /David Conrad/, Рут Негга /Ruth Negga/, Саффрон Берроуз /Saffron Burrows/ и др.

О сериале:
Действия сериала разворачиваются после событий фильма «Мстители». Агент Фил Колсон возвращается в правоохранительную организацию под названием Щ.И.Т., собрав небольшую команду профессионалов, он начинает работу над новыми делами, которые порой бывают очень странными.



Страны: США
Студии: Mutant Enemy / Marvel Television / ABC Studios
Продолжительность: 22 x ~ 00:43:00
Перевод:
Профессиональный (многоголосый, закадровый) - LostFilm
Профессиональный (дублированный) - Невафильм

Релиз от: by kmarats
Рип от VietHD!

Файл
Кодек: H.264
Качество: BDRip 720p
Видео: 1280x720 at 23.976 fps, x264@L4.1, crf, ~5000 kbps avg
Аудио#1: Russian: 48 kHz, AC3, 3/2 (L,C,R,l,r) + LFE ch, ~640.00 kbps avg |Многоголосый закадровый, LostFilm|
Аудио#2: Russian: 48 kHz, AC3, 2/0 (L,R) ch, ~192.00 kbps avg |Дублированный, Невафильм|
Аудио#3: English: 48 kHz, AC3, 3/2 (L,C,R,l,r) + LFE ch, ~640.00 kbps avg |Оригинал|
Субтитры: English (SDH)

АНОНСЫ ПОПУЛЯРНЫХ РАЗДАЧ


Торент обновлён, улучшен видеоряд, добавлен многоголосый перевод!
General
Complete name : Agents.of.S.H.I.E.L.D.S01E01.720p.BluRay.2xRus.Eng.HDCLUB.mkv
Format : Matroska
Format version : Version 4 / Version 2
File size : 2.01 GiB
Duration : 44mn 5s
Overall bit rate : 6 510 Kbps
Movie name : Agents.of.S.H.I.E.L.D. 1x01 (2013) - Release kmarats for HDCLUB
Encoded date : UTC 2014-09-20 16:37:33
Writing application : mkvmerge v6.9.1 ('Blue Panther') 64bit built on Apr 18 2014 18:23:38
Writing library : libebml v1.3.0 + libmatroska v1.4.1

Video
ID : 1
Format : AVC
Format/Info : Advanced Video Codec
Format profile : High@L4.1
Format settings, CABAC : Yes
Format settings, ReFrames : 9 frames
Codec ID : V_MPEG4/ISO/AVC
Duration : 44mn 5s
Bit rate : 4 909 Kbps
Width : 1 280 pixels
Height : 720 pixels
Display aspect ratio : 16:9
Frame rate mode : Constant
Frame rate : 23.976 fps
Color space : YUV
Chroma subsampling : 4:2:0
Bit depth : 8 bits
Scan type : Progressive
Bits/(Pixel*Frame) : 0.222
Stream size : 1.51 GiB (75%)
Title : Agents.of.S.H.I.E.L.D. 1x01 (2013) - Release kmarats for HDCLUB
Writing library : x264 core 142 r2453kMod ea0ca51
Encoding settings : cabac=1 / ref=9 / deblock=1:-3:-3 / analyse=0x3:0x133 / me=umh / subme=10 / psy=1 / fade_compensate=0.00 / psy_rd=1.00:0.00 / mixed_ref=1 / me_range=24 / chroma_me=1 / trellis=2 / 8x8dct=1 / cqm=0 / deadzone=21,11 / fast_pskip=1 / chroma_qp_offset=-2 / threads=12 / lookahead_threads=2 / sliced_threads=0 / nr=0 / decimate=1 / interlaced=0 / bluray_compat=0 / constrained_intra=0 / fgo=0 / bframes=9 / b_pyramid=2 / b_adapt=2 / b_bias=0 / direct=3 / weightb=1 / open_gop=0 / weightp=2 / keyint=250 / keyint_min=23 / scenecut=40 / intra_refresh=0 / rc=crf / mbtree=0 / crf=17.3000 / qcomp=0.65 / qpmin=0 / qpmax=69 / qpstep=4 / ip_ratio=1.30 / pb_ratio=1.20 / aq=3:0.75
Language : English
Default : Yes
Forced : No
Color range : Limited
Matrix coefficients : BT.709

Audio #1
ID : 2
Format : AC-3
Format/Info : Audio Coding 3
Mode extension : CM (complete main)
Format settings, Endianness : Big
Codec ID : A_AC3
Duration : 44mn 5s
Bit rate mode : Constant
Bit rate : 640 Kbps
Channel(s) : 6 channels
Channel positions : Front: L C R, Side: L R, LFE
Sampling rate : 48.0 KHz
Compression mode : Lossy
Stream size : 202 MiB (10%)
Title : LostFilm
Language : Russian
Default : Yes
Forced : No

Audio #2
ID : 3
Format : AC-3
Format/Info : Audio Coding 3
Mode extension : CM (complete main)
Format settings, Endianness : Big
Codec ID : A_AC3
Duration : 44mn 5s
Bit rate mode : Constant
Bit rate : 192 Kbps
Channel(s) : 2 channels
Channel positions : Front: L R
Sampling rate : 48.0 KHz
Compression mode : Lossy
Stream size : 60.6 MiB (3%)
Title : Nevafilm
Language : Russian
Default : No
Forced : No

Audio #3
ID : 4
Format : AC-3
Format/Info : Audio Coding 3
Mode extension : CM (complete main)
Format settings, Endianness : Big
Codec ID : A_AC3
Duration : 44mn 5s
Bit rate mode : Constant
Bit rate : 640 Kbps
Channel(s) : 6 channels
Channel positions : Front: L C R, Side: L R, LFE
Sampling rate : 48.0 KHz
Compression mode : Lossy
Stream size : 202 MiB (10%)
Title : English
Language : English
Default : No
Forced : No

Text
ID : 5
Format : UTF-8
Codec ID : S_TEXT/UTF8
Codec ID/Info : UTF-8 Plain Text
Title : eng-sub
Language : English
Default : No
Forced : No

Menu
00:00:00.000 : en:00:00:00.000
00:11:01.035 : en:00:11:01.035
00:18:19.640 : en:00:18:19.640
00:26:41.433 : en:00:26:41.433
00:32:53.513 : en:00:32:53.513
00:43:24.101 : en:00:43:24.101
01. Пилотная серия / Pilot
02. 0-8-4 / 0-8-4
03. The Asset / Активы
04. Eye-Spy / Глаз-алмаз
05. Girl in the Flower Dress / Девушка в цветастом платье
06. FZZT / ФЗЗТ
07. The Hub / Центр
08. The Well / Колодец
09. Repairs / Восстановление
10. The Bridge / Мост
11. The Magical Place / Волшебное место
12. Seeds / Семена
13. T.R.A.C.K.S. / П.У.Т.И.
14. T.A.H.I.T.I. / Т.А.И.Т.И.
15. Yes Men / Безотказные
16. End of the Beginning / Конец начала
17. Turn, Turn, Turn / Поворот, поворот, поворот
18. Providence / Провидение
19. The Only Light in the Darkness / Свет во тьме
20. Nothing Personal / Ничего личного
21. Ragtag / Разброд и шатание
22. Beginning of the End / Начало конца
ЦитатаКто-то писал:
Сохранены оригинальные главы как на Blu-ray.



Скачать Агенты.Щ.И.Т.Agents.of.S.H.I.E.L.D.(сезон.01).(Джесси.Бокко.Милан.Чейлов.и.др.).[2013.приключения.фантастика.WEB-DL].[720p].[MVO.(LostFilm)]+[Dub.(Невафильм)]+[Eng]+[Sub.Tng].torrent без регистрации
Золото ЗОЛОТАЯ РАЗДАЧА! СКАЧАННОЕ НЕ ЗАСЧИТЫВАЕТСЯ! Золото
Дата: Зарегистрирован   [ Тип: внутренний ] Как тут cкачать?
MAGNET ссылка
MAGNET ссылка


Скачать .torrent

262 KB

Статус: проверено DHT
Скачан: торрент - 236 раз, раздача полностью - 2 раз
Размер: 51,89 GB
Оценка:  5 (Голосов: 1)
Поблагодарили: 3
Поделиться ссылкой на эту раздачу с друзьями:
В контактеFacebookОдноклассникиTwitterLivejournalМой МирLiveinternet
 

 

МихаНЕзатор

[] 

Раздача обновлена.
 
Показать сообщения:    


Вы не можете начинать темы
Вы не можете отвечать на сообщения
Вы не можете редактировать свои сообщения
Вы не можете удалять свои сообщения
Вы не можете голосовать в опросах
Вы не можете прикреплять файлы к сообщениям
Вы можете скачивать файлы