Loading...
Error

Скачать Лучший Стрелок / Top Gun (Тони Скотт / Tony Scott) [1986, боевик, драма, мелодрама, HDRip] [MVO] (НТВ+) + [DVO] (Премьер Видео Фильм) торрент без регистрации

 
Статистика раздачи
Размер:  1,44 GB   |    Скачан:  122 раза
Сидов:  1  [  0 KB/s  ]  
 
Автор Сообщение

leon030982

[] 

Лучший Стрелок / Top Gun


Год выпуска: 1986
Страна: США
Жанр: боевик, драма, мелодрама
Продолжительность: 01:49:35
Перевод #1: Профессиональный (многоголосый, закадровый) [НТВ+]
Перевод #2: Профессиональный (двухголосый, закадровый) [Премьер Видео Фильм]
Cубтитры: нет

Режиссер: Тони Скотт / Tony Scott

В ролях: Том Круз, Келли МакГиллис, Вэл Килмер, Энтони Эдвардс, Том Скеррит, Майкл Айронсайд, Джон Стокуэлл, Бэрри Табб, Рик Россович, Тим Роббинс

Описание: Искусный пилот истребителя Ф-14, курсант элитного училища ВМС США, летающий как бог и руководимый как в жизни, так и в небе инстинктами, а не разумом, влюбляется в инструктора училища, астрофизика, которая долгое время отказывает ему во взаимности. Уступит ли она его белозубой улыбке?



Качество видео: HDRip
Формат видео: AVI
Видео кодек: XviD
Аудио кодек: AC3
Видео: 720x304 (2.37:1), 23.976 fps, XviD build 56 ~1444 kbps avg, 0.28 bit/pixel
Аудио №1: 48 kHz, AC3 Dolby Digital, 2/0 (L,R) ch, ~192.00 kbps avg [НТВ+-ТВ3]
Аудио №2: 48 kHz, AC3 Dolby Digital, 2/0 (L,R) ch, ~224.00 kbps avg [Премьер Видео Фильм]
Перевод НТВ+
Текст Читали:
НТВ+ - Елена Борзунова, Павел Кипнис, Евгений Вальц
Премьер Видео Фильм - Дмитрий Полонский и Людмила Ильина.
General
Complete name : E:\INTERNET\Лучший Стрелок.avi
Format : AVI
Format/Info : Audio Video Interleave
File size : 1.44 GiB
Duration : 1h 49mn
Overall bit rate : 1 875 Kbps
Director : zim2001
Writing application : VirtualDubMod 1.5.10.2 (build 2540/release)
Writing library : VirtualDubMod build 2540/release

Video
ID : 0
Format : MPEG-4 Visual
Format profile : Advanced Simple@L5
Format settings, BVOP : 2
Format settings, QPel : No
Format settings, GMC : No warppoints
Format settings, Matrix : Custom
Codec ID : XVID
Codec ID/Hint : XviD
Duration : 1h 49mn
Bit rate : 1 445 Kbps
Width : 720 pixels
Height : 304 pixels
Display aspect ratio : 2.35:1
Frame rate : 23.976 fps
Color space : YUV
Chroma subsampling : 4:2:0
Bit depth : 8 bits
Scan type : Progressive
Compression mode : Lossy
Bits/(Pixel*Frame) : 0.275
Stream size : 1.11 GiB (77%)
Writing library : XviD 56

Audio #1
ID : 1
Format : AC-3
Format/Info : Audio Coding 3
Mode extension : CM (complete main)
Codec ID : 2000
Duration : 1h 49mn
Bit rate mode : Constant
Bit rate : 192 Kbps
Channel(s) : 2 channels
Channel positions : Front: L R
Sampling rate : 48.0 KHz
Bit depth : 16 bits
Compression mode : Lossy
Stream size : 151 MiB (10%)
Alignment : Split accross interleaves
Interleave, duration : 42 ms (1.00 video frame)
Interleave, preload duration : 500 ms

Audio #2
ID : 2
Format : AC-3
Format/Info : Audio Coding 3
Mode extension : CM (complete main)
Codec ID : 2000
Duration : 1h 49mn
Bit rate mode : Constant
Bit rate : 224 Kbps
Channel(s) : 2 channels
Channel positions : Front: L R
Sampling rate : 48.0 KHz
Bit depth : 16 bits
Compression mode : Lossy
Stream size : 175 MiB (12%)
Alignment : Split accross interleaves
Interleave, duration : 42 ms (1.00 video frame)
Interleave, preload duration : 500 ms



Скачать Лучший.Стрелок.Top.Gun.(Тони.Скотт.Tony.Scott).[1986.боевик.драма.мелодрама.HDRip].[MVO].(НТВ+).+.[DVO].(Премьер.Видео.Фильм).torrent без регистрации
Золото ЗОЛОТАЯ РАЗДАЧА! СКАЧАННОЕ НЕ ЗАСЧИТЫВАЕТСЯ! Золото
Дата: Зарегистрирован   [ Тип: внутренний ] Как тут cкачать?
MAGNET ссылка
MAGNET ссылка


Скачать .torrent

15 KB

Статус: проверено DHT
Скачан: торрент - 122 раз, раздача полностью - 14 раз
Размер: 1,44 GB
Оценка:  5 (Голосов: 1)
Поблагодарили: 1
Поделиться ссылкой на эту раздачу с друзьями:
В контактеFacebookОдноклассникиTwitterLivejournalМой МирLiveinternet
 

 
Показать сообщения:    


Вы не можете начинать темы
Вы не можете отвечать на сообщения
Вы не можете редактировать свои сообщения
Вы не можете удалять свои сообщения
Вы не можете голосовать в опросах
Вы не можете прикреплять файлы к сообщениям
Вы можете скачивать файлы