Loading...
Error

Скачать Сердце Дикси / Hart of Dixie / Сезон: 3 / Серии: 1-8 из 22 (Джейсон Энслер, Дэвид Пэймер) [2013, драма, комедия, HDTVRip] Original + Rus Subs (Нотабеноид) торрент без регистрации

 
Статистика раздачи
Размер:  2,71 GB   |    Скачан:  135 раз
Сидов:  1  [  0 KB/s  ]  
 
Автор Сообщение

deadmauVlad

[] 

Сердце Дикси / Hart of Dixie


Год выпуска: 2013
Страна: США
Жанр: драма, комедия
Продолжительность: 00:43:00

Перевод: Субтитры
Автор перевода: Нотабеноид


Режиссёр: Джейсон Энслер, Дэвид Пэймер

В ролях: Рэйчел Билсон, Джейми Кинг, Скотт Портер, Кресс Уильямс, Уилсон Бетел, Робин Маллинз и другие.

Описание: Молодой врач из Нью-Йорка, по имени Зоуи Харт, получает предписание на прохождение врачебной практики в небольшом городке на юге США, населенном необычными и эксцентричными личностями, и она всеми силами пытается адаптироваться на новом месте.

Ссылка на предыдущие и альтернативные раздачи: http://goldenshara.com/razdachi.php?nm=%D1%E5%F0%E4...&f=6#results

Сэмпл: http://sendfile.su/885735

Качество: HDTVRip
Формат: AVI
Видео кодек: XviD
Аудио кодек: MP3
Видео: 624x352 (1.77:1), 23.976 fps, XviD MPEG-4 ~1021 kbps avg, 0.19 bit/pixel

Аудио: 48 kHz, MPEG Layer 3, 2 ch, ~128.00 kbps avg
General
Complete name : D:\Фильмы\Сердце Дикси (сезон 3 sub)\Hart.of.Dixie.S03E01.HDTV.XviD-FUM.avi
Format : AVI
Format/Info : Audio Video Interleave
File size : 349 MiB
Duration : 42mn 4s
Overall bit rate : 1 159 Kbps
Writing application : VirtualDubMod 1.5.10.2 (build 2540/release)
Writing library : VirtualDubMod build 2540/release

Video
ID : 0
Format : MPEG-4 Visual
Format profile : Advanced Simple@L5
Format settings, BVOP : Yes
Format settings, QPel : No
Format settings, GMC : No warppoints
Format settings, Matrix : Default (H.263)
Muxing mode : Packed bitstream
Codec ID : XVID
Codec ID/Hint : XviD
Duration : 42mn 4s
Bit rate : 1 022 Kbps
Width : 624 pixels
Height : 352 pixels
Display aspect ratio : 16:9
Frame rate : 23.976 fps
Resolution : 8 bits
Colorimetry : 4:2:0
Scan type : Progressive
Bits/(Pixel*Frame) : 0.194
Stream size : 308 MiB (88%)
Writing library : XviD 64

Audio
ID : 1
Format : MPEG Audio
Format version : Version 1
Format profile : Layer 3
Mode : Joint stereo
Format_Settings_ModeExtension : MS Stereo
Codec ID : 55
Codec ID/Hint : MP3
Duration : 42mn 4s
Bit rate mode : Constant
Bit rate : 128 Kbps
Channel(s) : 2 channels
Sampling rate : 48.0 KHz
Stream size : 38.5 MiB (11%)
Alignment : Aligned on interleaves
Interleave, duration : 42 ms (1.00 video frame)
Interleave, preload duration : 504 ms
Writing library : LAME3.98.2
Внимание! Раздача ведётся путём добавления новых серий; при каждом добавлении создаётся новый торрент. Чтобы начать докачку новой серии, пользователям необходимо сделать следующее:
(1) остановить скачивание,
(2) удалить старый торрент у себя из клиента (старые серии удалять не надо),
(3) скачать новый торрент и запустить его у себя в клиенте вместо старого, при этом указать клиенту путь в старую папку куда и должно происходить скачивание новых серий.
Ваш клиент при этом должен произвести хеширование (проверку) старой папки (если не производит сам - помогите ему сделать это), и будет докачивать только те серии, которых у вас ещё нет. Старые серии при этом не удаляются, а продолжают раздаваться!
Eсли вы уже удалили старые серии, то предотвратить повторную закачку старых серий можно, отжав галочку в соответствующих местах при запуске нового торрента. По возможности, желательно не удалять старые серии как мо



Скачать Сердце.Дикси.Hart.of.Dixie.Сезон.3.Серии.1-8.из.22.(Джейсон.Энслер.Дэвид.Пэймер).[2013.драма.комедия.HDTVRip].Original.+.Rus.Subs.(Нотабеноид).torrent без регистрации
Золото ЗОЛОТАЯ РАЗДАЧА! СКАЧАННОЕ НЕ ЗАСЧИТЫВАЕТСЯ! Золото
Дата: Зарегистрирован   [ Тип: внутренний ] Как тут cкачать?
MAGNET ссылка
MAGNET ссылка


Скачать .torrent

15 KB

Статус: проверено DHT
Скачан: торрент - 135 раз, раздача полностью - 0 раз
Размер: 2,71 GB
Оценка:  - (Голосов: 0)
Поблагодарили: 0
Поделиться ссылкой на эту раздачу с друзьями:
В контактеFacebookОдноклассникиTwitterLivejournalМой МирLiveinternet
 

 
Показать сообщения:    


Вы не можете начинать темы
Вы не можете отвечать на сообщения
Вы не можете редактировать свои сообщения
Вы не можете удалять свои сообщения
Вы не можете голосовать в опросах
Вы не можете прикреплять файлы к сообщениям
Вы можете скачивать файлы