Loading...
Error

Скачать Мальчишник в Вегасе / The Hangover (Тодд Филлипс / Todd Phillips) [2009, США, комедия, криминал, BDRip] [Unrated Cut] MVO + Dub + Original + Subs торрент без регистрации

 
Статистика раздачи
Размер:  2,52 GB   |    Скачан:  150 раз
Сидов:  1  [  0 KB/s  ]  
 
Автор Сообщение

deadmauVlad

[] 

Мальчишник в Вегасе / The Hangover / Unrated Cut


Страна: США
Жанр: комедия, криминал
Год выпуска: 2009
Продолжительность: 01:47:53
Перевод: Профессиональный (многоголосый, закадровый) Киномания
+ Профессиональный (дублированный) на эпизодах расширенной версии перевод Киномании
+ Оригинальная звуковая дорожка (English) отдельно
Cубтитры: русские, английские (внешние .srt)

Режиссер: Тодд Филлипс / Todd Phillips

В ролях: Брэдли Купер, Эд Хелмс, Зэк Галифианакис, Джастин Барта, Хизер Грэм, Александра Баррези, Джеффри Тэмбор, Кен Жонг, Рэйчел Харрис, Майк Тайсон, Майк Еппс, Джернард Буркс, Роб Риггл, Клео Кинг, Bryan Callen, Мэтт Уолш, Йен Энтони Дэйл, Майкл Ли, Сондра Карри, Джиллиан Вигмэн, Натали Фэй.

Описание: Они мечтали устроить незабываемый мальчишник в Вегасе. Но теперь им действительно необходимо вспомнить, что именно происходило! Чей ребенок сидит в шкафу шикарного номера отеля? Как в ванную попал тигр? Почему у одного из них нет зуба? И, самое главное, куда делся жених?!
То, что парни вытворяли на вечеринке, не идет ни в какое сравнение с тем, что им придется сделать на трезвую голову, когда они будут шаг за шагом восстанавливать события прошлой ночи, каждый раз — новая зацепка.
Релиз: Автор: DaniLch
Качество видео: BDRip (источник: Blu-Ray BDRemux / 1080p)
Формат видео: AVI | Sample
Видео: 720x304 (2.37:1), 23.976 fps, XviD build 50 ~1996 kbps avg, 0.38 bit/pixel
Аудио 1: 48 kHz, AC3 Dolby Digital, 3/2 (L,C,R,l,r) + LFE ch, ~448.00 kbps avg (RUS)
Аудио 2: 48 kHz, AC3 Dolby Digital, 3/2 (L,C,R,l,r) + LFE ch, ~448.00 kbps avg (RUS)
Аудио 3: 48 kHz, AC3 Dolby Digital, 3/2 (L,C,R,l,r) + LFE ch, ~448.00 kbps avg (ENG)
отдельно
Format : AVI
Format/Info : Audio Video Interleave
Format profile : OpenDML
File size : 2.18 GiB
Duration : 1h 47mn
Overall bit rate : 2 899 Kbps
Movie name : Мальчишник в Вегасе / The Hangover [UNRATED] (2009)
Director : DaniLch
Genre : Comedy/Crime
Writing application : VirtualDubMod 1.5.10.2 (build 2542/release)

Video
ID : 0
Format : MPEG-4 Visual
Format profile : Advanced Simple@L5
Format settings, BVOP : Yes
Format settings, QPel : No
Format settings, GMC : No warppoints
Format settings, Matrix : Default (MPEG)
Codec ID : XVID
Codec ID/Hint : XviD
Duration : 1h 47mn
Bit rate : 1 985 Kbps
Width : 720 pixels
Height : 304 pixels
Display aspect ratio : 2.35:1
Frame rate : 23.976 fps
Color space : YUV
Chroma subsampling : 4:2:0
Bit depth : 8 bits
Scan type : Progressive
Bits/(Pixel*Frame) : 0.378
Stream size : 1.50 GiB (68%)
Writing library : XviD 1.2.1 (UTC 2008-12-04)

Audio #1
ID : 1
Format : AC-3
Format/Info : Audio Coding 3
Mode extension : CM (complete main)
Codec ID : 2000
Duration : 1h 47mn
Bit rate mode : Constant
Bit rate : 448 Kbps
Channel(s) : 6 channels
Channel positions : Front: L C R, Side: L R, LFE
Sampling rate : 48.0 KHz
Bit depth : 16 bits
Stream size : 346 MiB (15%)
Alignment : Split accross interleaves
Interleave, duration : 42 ms (1.00 video frame)
Interleave, preload duration : 500 ms
Title : Киномания

Audio #2
ID : 2
Format : AC-3
Format/Info : Audio Coding 3
Mode extension : CM (complete main)
Codec ID : 2000
Duration : 1h 47mn
Bit rate mode : Constant
Bit rate : 448 Kbps
Channel(s) : 6 channels
Channel positions : Front: L C R, Side: L R, LFE
Sampling rate : 48.0 KHz
Bit depth : 16 bits
Stream size : 346 MiB (15%)
Alignment : Split accross interleaves
Interleave, duration : 42 ms (1.00 video frame)
Interleave, preload duration : 500 ms
Title : Дубляж



Скачать Мальчишник.в.Вегасе.The.Hangover.(Тодд.Филлипс.Todd.Phillips).[2009.США.комедия.криминал.BDRip].[Unrated.Cut].MVO.+.Dub.+.Original.+.Subs.torrent без регистрации
Золото ЗОЛОТАЯ РАЗДАЧА! СКАЧАННОЕ НЕ ЗАСЧИТЫВАЕТСЯ! Золото
Дата: Зарегистрирован   [ Тип: внутренний ] Как тут cкачать?
MAGNET ссылка
MAGNET ссылка


Скачать .torrent

13 KB

Статус: проверено DHT
Скачан: торрент - 150 раз, раздача полностью - 209 раз
Размер: 2,52 GB
Оценка:  - (Голосов: 0)
Поблагодарили: 2
Поделиться ссылкой на эту раздачу с друзьями:
В контактеFacebookОдноклассникиTwitterLivejournalМой МирLiveinternet
 

 
Показать сообщения:    


Вы не можете начинать темы
Вы не можете отвечать на сообщения
Вы не можете редактировать свои сообщения
Вы не можете удалять свои сообщения
Вы не можете голосовать в опросах
Вы не можете прикреплять файлы к сообщениям
Вы можете скачивать файлы