Loading...
Error

Скачать Догма / Dogma (Кевин Смит) [1999, фэнтези, черная комедия, DVDRip] [Fullscreen version] [Dub] торрент без регистрации

 
Статистика раздачи
Размер:  2,17 GB   |    Скачан:  129 раз
Сидов:  1  [  0 KB/s  ]  
 
Автор Сообщение

Marsianka

[] 

Догма / Dogma / Fullscreen version
Страна: США
Жанр: фэнтези, черная комедия
Год выпуска: 1999
Продолжительность: 02:08:12
Перевод: Профессиональный (дублированный)
Cубтитры: нет
Режиссер: Кевин Смит / Kevin Smith
В ролях: Бен Аффлек, Мэтт Дэймон, Линда Фиорентино, Сальма Хайек, Джейсон Ли, Джейсон Мьюз, Алан Рикман, Крис Рок, Бад Корт, Аланис Морисетт, Джефф Андерсон, Джордж Карлин
Описание: Два падших ангела, Локи и Бартлби, обреченные вечность торчать в штате Висконсин, узнали, что у них есть шанс вернуться в рай. Для этого нужно всего лишь воспользоваться ошибочной церковной католической догмой, провозглашенной кардиналом-новатором: каждый, прошедший через освященную арку в соборе в Нью-Джерси, получает отпущение грехов. Пройдя через нее, Локи и Бартлби получат прощение, далее им надо стать смертными, умереть и возвратиться в рай. Есть только одно но. Если это произойдет, то исчезнет все сущее на земле, включая род людской. Помешать этому может только пра-пра… пра-пра племянница Иисуса Христа по имени Вифания, которой помогают тринадцатый апостол Руфус и два смертных пророка, одного из которых играет сам режиссер, а второго — его друг Джейсон Мьюз. К ним присоединяется уже давно живущая на земле Муза по имени Серендипити, подрабатывающая стриптизёршей…

Качество видео: DVDRip Спасибо multmir
Формат видео: AVI
Видео: 656x480 (1.37:1), 23.976 fps, XviD build 73 ~1968 kbps avg, 0.26 bit/pixel
Аудио: 48 kHz, AC3 Dolby Digital, 3/2 (L,C,R,l,r) + LFE ch, ~448 kbps Спасибо Last Boy Scout
General
Complete name : D:\Релизы\Dogma.Fullscreen version.1999.RUS.DVDRip.XviD.AC3.avi
Format : AVI
Format/Info : Audio Video Interleave
File size : 2.17 GiB
Duration : 2h 8mn
Overall bit rate : 2 426 Kbps
Writing application : VirtualDubMod 1.5.10.2 (build 2540/release)
Writing library : VirtualDubMod build 2540/release
Video
ID : 0
Format : MPEG-4 Visual
Format profile : Advanced Simple@L5
Format settings, BVOP : 1
Format settings, QPel : No
Format settings, GMC : No warppoints
Format settings, Matrix : Custom
Codec ID : XVID
Codec ID/Hint : XviD
Duration : 2h 8mn
Bit rate : 1 969 Kbps
Width : 656 pixels
Height : 480 pixels
Display aspect ratio : 4:3
Frame rate : 23.976 fps
Color space : YUV
Chroma subsampling : 4:2:0
Bit depth : 8 bits
Scan type : Progressive
Compression mode : Lossy
Bits/(Pixel*Frame) : 0.261
Stream size : 1.76 GiB (81%)
Writing library : XviD 73
Audio
ID : 1
Format : AC-3
Format/Info : Audio Coding 3
Mode extension : CM (complete main)
Format settings, Endianness : Big
Codec ID : 2000
Duration : 2h 8mn
Bit rate mode : Constant
Bit rate : 448 Kbps
Channel(s) : 6 channels
Channel positions : Front: L C R, Side: L R, LFE
Sampling rate : 48.0 KHz
Bit depth : 16 bits
Compression mode : Lossy
Delay relative to video : 960ms
Stream size : 411 MiB (18%)
Alignment : Split accross interleaves
Interleave, duration : 42 ms (1.00 video frame)
Interleave, preload duration : 500 ms



Скачать Догма.Dogma.(Кевин.Смит).[1999.фэнтези.черная.комедия.DVDRip].[Fullscreen.version].[Dub].torrent без регистрации
Золото ЗОЛОТАЯ РАЗДАЧА! СКАЧАННОЕ НЕ ЗАСЧИТЫВАЕТСЯ! Золото
Дата: Зарегистрирован   [ Тип: внутренний ] Как тут cкачать?
MAGNET ссылка
MAGNET ссылка


Скачать .torrent

11 KB

Статус: проверено DHT
Скачан: торрент - 129 раз, раздача полностью - 77 раз
Размер: 2,17 GB
Оценка:  5 (Голосов: 1)
Поблагодарили: 4
Поделиться ссылкой на эту раздачу с друзьями:
В контактеFacebookОдноклассникиTwitterLivejournalМой МирLiveinternet
 

 
Показать сообщения:    


Вы не можете начинать темы
Вы не можете отвечать на сообщения
Вы не можете редактировать свои сообщения
Вы не можете удалять свои сообщения
Вы не можете голосовать в опросах
Вы не можете прикреплять файлы к сообщениям
Вы можете скачивать файлы