Loading...
Error

Скачать Человек в железной маске / The Man in the Iron Mask (Рэндалл Уоллес / Randall Wallace) [1998 г., боевик, драма, приключения, история, HDRip] [AVO] (Ю.Живов) + [MVO] (Первый Канал) торрент без регистрации

 
Статистика раздачи
Размер:  2,23 GB   |    Скачан:  111 раз
Сидов:  1  [  0 KB/s  ]  
 
Автор Сообщение

leon030982

[] 

Человек в железной маске / The Man in the Iron Mask


Год выпуска: 1998
Страна: США, Великобритания
Жанр: боевик, драма, приключения, история
Продолжительность: 02:12:15
Перевод #1: Авторский (одноголосный) [Ю.Живов]
Перевод #2: Профессиональный (многоголосый, закадровый)[Первый Канал]
Cубтитры: нет

Режиссер: Рэндалл Уоллес / Randall Wallace

В ролях: Леонардо ДиКаприо, Джереми Айронс, Джон Малкович, Жерар Депардье, Гэбриел Бирн, Анн Парийо, Жюдит Годреш, Эдвард Аттертон
Описание: Во времена блеска и отчаяния измученной Франции король Людовик XIV вовсю наслаждается прелестями жизни, пока вся его страна голодает. Людовик, уверенный в абсолютности собственной власти, опасается лишь одного человека, способного положить конец его царствованию, — приговоренного им к пожизненному заключению и закованного в железную маску.
Но когда королевский эгоизм заходит слишком далеко, бывшие мушкетеры Атос, Портос и Арамис отваживаются спасти таинственного узника, который может стать единственной надеждой Франции на возрождение. Остается лишь вопрос: поможет ли им верный друг, славный д`Артаньян, — или будет драться против?..



Качество видео: HDRip
Формат видео: AVI
Видео кодек: XviD
Аудио кодек: AC3
Видео: 720x384 (1.88:1), 23.976 fps, XviD build 50 ~1769 kbps avg, 0.27 bit/pixel
Аудио #1: 48 kHz, AC3 Dolby Digital, 3/2 (L,C,R,l,r) + LFE ch, ~448.00 kbps avg [Ю.Живов]
Аудио #2: 48 kHz, AC3 Dolby Digital, 2/0 (L,R) ch, ~192.00 kbps avg [Первый Канал]
General
Complete name : E:\INTERNET\The Man in the Iron Mask.1998.HDRip.[AVO] + [MVO].km.avi
Format : AVI
Format/Info : Audio Video Interleave
Format profile : OpenDML
File size : 2.23 GiB
Duration : 2h 12mn
Overall bit rate : 2 416 Kbps
Movie name : The Man in the Iron Mask.1998.HDRip.[AVO] + [MVO].km.avi
Writing application : VirtualDubMod 1.5.10.3 (build 2550/release)
Writing library : VirtualDubMod build 2550/release

Video
ID : 0
Format : MPEG-4 Visual
Format profile : Advanced Simple@L5
Format settings, BVOP : 1
Format settings, QPel : No
Format settings, GMC : No warppoints
Format settings, Matrix : Custom
Codec ID : XVID
Codec ID/Hint : XviD
Duration : 2h 12mn
Bit rate : 1 758 Kbps
Width : 720 pixels
Height : 384 pixels
Display aspect ratio : 1.875
Frame rate : 23.976 fps
Color space : YUV
Chroma subsampling : 4:2:0
Bit depth : 8 bits
Scan type : Progressive
Compression mode : Lossy
Bits/(Pixel*Frame) : 0.265
Stream size : 1.62 GiB (73%)
Writing library : XviD 1.2.1 (UTC 2008-12-04)

Audio #1
ID : 1
Format : AC-3
Format/Info : Audio Coding 3
Mode extension : CM (complete main)
Codec ID : 2000
Duration : 2h 12mn
Bit rate mode : Constant
Bit rate : 448 Kbps
Channel(s) : 6 channels
Channel positions : Front: L C R, Side: L R, LFE
Sampling rate : 48.0 KHz
Bit depth : 16 bits
Compression mode : Lossy
Stream size : 424 MiB (19%)
Alignment : Split accross interleaves
Interleave, duration : 42 ms (1.00 video frame)
Interleave, preload duration : 500 ms

Audio #2
ID : 2
Format : AC-3
Format/Info : Audio Coding 3
Mode extension : CM (complete main)
Codec ID : 2000
Duration : 2h 12mn
Bit rate mode : Constant
Bit rate : 192 Kbps
Channel(s) : 2 channels
Channel positions : Front: L R
Sampling rate : 48.0 KHz
Bit depth : 16 bits
Compression mode : Lossy
Stream size : 182 MiB (8%)
Alignment : Split accross interleaves
Interleave, duration : 42 ms (1.00 video frame)
Interleave, preload duration : 500 ms



Скачать Человек.в.железной.маске.The.Man.in.the.Iron.Mask.(Рэндалл.Уоллес.Randall.Wallace).[1998.г.боевик.драма.приключения.история.HDRip].[AVO].(Ю.Живов).+.[MVO].(Первый.Канал).torrent без регистрации
Золото ЗОЛОТАЯ РАЗДАЧА! СКАЧАННОЕ НЕ ЗАСЧИТЫВАЕТСЯ! Золото
Дата: Зарегистрирован   [ Тип: внутренний ] Как тут cкачать?
MAGNET ссылка
MAGNET ссылка


Скачать .torrent

12 KB

Статус: проверено DHT
Скачан: торрент - 111 раз, раздача полностью - 4 раз
Размер: 2,23 GB
Оценка:  5 (Голосов: 1)
Поблагодарили: 1
Поделиться ссылкой на эту раздачу с друзьями:
В контактеFacebookОдноклассникиTwitterLivejournalМой МирLiveinternet
 

 
Показать сообщения:    


Вы не можете начинать темы
Вы не можете отвечать на сообщения
Вы не можете редактировать свои сообщения
Вы не можете удалять свои сообщения
Вы не можете голосовать в опросах
Вы не можете прикреплять файлы к сообщениям
Вы можете скачивать файлы