Loading...
Error

Скачать Дом / House (Стив Майнер / Steve Miner) [1986, Ужасы , триллер, DVDRip] [MVO] [AVO (Белов , Визгунов , Володарский)] + [Original Eng] торрент без регистрации

 
Статистика раздачи
Размер:  2,18 GB   |    Скачан:  122 раза
Сидов:  1  [  0 KB/s  ]  
 
Автор Сообщение

jon99

[] 


Дом / House


Год выпуска: 1986
Выпущено: США
Жанр: Ужасы , триллер
Продолжительность: 01:32:23
Перевод№1: Профессиональный (многоголосый)
Перевод№2: Авторский ( Одноголосый ) Белов
Перевод№3: Авторский ( Одноголосый ) Визгунов
Перевод№4: Авторский ( Одноголосый ) Володарский
Оригинальная английская дорожка
Субтитры: нет
Режиссер: Стив Майнер / Steve Miner
В ролях: Уильям Кэтт, Джордж Уэндт, Ричард Молл, Кэй Ленц, Мэри Стэвин, Майкл Инсайн, Эрик Сильвер, Марк Сильвер, Сьюзэн Френч, Алан Аутри
Описание: Молодой писатель Роджер Кобб испытал на собственной шкуре ужасы вьетнамской войны, но это было лишь началом выпавших на его долю испытаний: брак Роджера развалился, малолетний сын исчез, а кровавые кошмары боев продолжали являться Коббу чуть ли не каждую ночь. Чтобы написать книгу о своих переживаниях, Роджер поселился в мрачном, старинном доме, что достался герою по наследству от тети. У дома — не самая лучшая репутация: его хозяйка была найдена повешенной у себя в комнате, и с тех пор по вечерам здесь раздаются странные звуки…

Качество: DVDRip
Формат: MKV
Видео кодек: XviD
Аудио кодек: AC3
Видео: 704x384 (1.83:1), 23.976 fps, XviD build 50 ~1808 kbps avg, 0.28 bit/pixel
Аудио#1: 48 kHz, AC3 Dolby Digital, 6 ch ~448 kbps MVO
Аудио#2: 48 kHz, AC3 Dolby Digital, 2 ch ~224 Kbps AVO (Белов)
Аудио#3: 48 kHz, AC3 Dolby Digital, 2 ch ~224 Kbps AVO (Визгунов)
Аудио#4: 48 kHz, AC3 Dolby Digital, 2 ch ~224 Kbps AVO (Володарский)
Аудио#5: 48 kHz, AC3 Dolby Digital, 6 ch ~448 kbps Original Eng

Цитата:

General
Complete name : J:\VIDEO\Films\Дом House (1986)\Дом.mkv
Format : Matroska
File size : 2.18 GiB
Duration : 1h 32mn
Overall bit rate : 3 377 Kbps
Encoded date : UTC 2013-12-15 01:01:05
Writing application : mkvmerge v4.3.0 ('Escape from the Island') сборка от Sep 5 2010 10:30:51
Writing library : libebml v1.0.0 + libmatroska v1.0.0

Video
ID : 1
Format : MPEG-4 Visual
Format profile : Advanced Simple@L5
Format settings, BVOP : Yes
Format settings, QPel : No
Format settings, GMC : No warppoints
Format settings, Matrix : Custom
Codec ID : XVID
Codec ID/Hint : XviD
Duration : 1h 32mn
Bit rate : 1 742 Kbps
Width : 704 pixels
Height : 384 pixels
Display aspect ratio : 16:9
Frame rate : 23.976 fps
Resolution : 8 bits
Colorimetry : 4:2:0
Scan type : Progressive
Bits/(Pixel*Frame) : 0.269
Stream size : 1.12 GiB (52%)
Writing library : XviD 1.2.1 (UTC 2008-12-04)

Audio #1
ID : 2
Format : AC-3
Format/Info : Audio Coding 3
Codec ID : A_AC3
Duration : 1h 32mn
Bit rate mode : Constant
Bit rate : 448 Kbps
Channel(s) : 6 channels
Channel positions : Front: L C R, Surround: L R, LFE
Sampling rate : 48.0 KHz
Stream size : 296 MiB (13%)
Title : MVO
Language : Russian

Audio #2
ID : 3
Format : AC-3
Format/Info : Audio Coding 3
Codec ID : A_AC3
Duration : 1h 32mn
Bit rate mode : Constant
Bit rate : 224 Kbps
Channel(s) : 2 channels
Channel positions : L R
Sampling rate : 48.0 KHz
Stream size : 148 MiB (7%)
Title : AVO (Белов)
Language : Russian

Audio #3
ID : 4
Format : AC-3
Format/Info : Audio Coding 3
Codec ID : A_AC3
Duration : 1h 32mn
Bit rate mode : Constant
Bit rate : 224 Kbps
Channel(s) : 2 channels
Channel positions : L R
Sampling rate : 48.0 KHz
Stream size : 148 MiB (7%)
Title : AVO (Визгунов)
Language : Russian

Audio #4
ID : 5
Format : AC-3
Format/Info : Audio Coding 3
Codec ID : A_AC3
Duration : 1h 32mn
Bit rate mode : Constant
Bit rate : 224 Kbps
Channel(s) : 2 channels
Channel positions : L R
Sampling rate : 48.0 KHz
Stream size : 148 MiB (7%)
Title : AVO (Володарский)
Language : Russian

Audio #5
ID : 6
Format : AC-3
Format/Info : Audio Coding 3
Codec ID : A_AC3
Duration : 1h 32mn
Bit rate mode : Constant
Bit rate : 448 Kbps
Channel(s) : 6 channels
Channel positions : Front: L C R, Surround: L R, LFE
Sampling rate : 48.0 KHz
Stream size : 296 MiB (13%)
Title : Original Eng







Скачать Дом.House.(Стив.Майнер.Steve.Miner).[1986.Ужасы.триллер.DVDRip].[MVO].[AVO.(Белов.Визгунов.Володарский)].+.[Original.Eng].torrent без регистрации
Золото ЗОЛОТАЯ РАЗДАЧА! СКАЧАННОЕ НЕ ЗАСЧИТЫВАЕТСЯ! Золото
Дата: Зарегистрирован   [ Тип: внутренний ] Как тут cкачать?
MAGNET ссылка
MAGNET ссылка


Скачать .torrent

12 KB

Статус: проверено DHT
Скачан: торрент - 122 раз, раздача полностью - 0 раз
Размер: 2,18 GB
Оценка:  5 (Голосов: 2)
Поблагодарили: 5
Поделиться ссылкой на эту раздачу с друзьями:
В контактеFacebookОдноклассникиTwitterLivejournalМой МирLiveinternet
 

 
Показать сообщения:    


Вы не можете начинать темы
Вы не можете отвечать на сообщения
Вы не можете редактировать свои сообщения
Вы не можете удалять свои сообщения
Вы не можете голосовать в опросах
Вы не можете прикреплять файлы к сообщениям
Вы можете скачивать файлы