Loading...
Error

Скачать Дом 2: Проклятая обитель / House II: The Second Story (Этан Уайли / Ethan Wiley) [1987, Ужасы , Триллер, DVDRip] [MVO] [AVO (Визгунов , Гаврилов)] + [Original Eng] торрент без регистрации

 
Статистика раздачи
Размер:  2,02 GB   |    Скачан:  140 раз
Сидов:  1  [  0 KB/s  ]  
 
Автор Сообщение

jon99

[] 


Дом 2: Проклятая обитель / House II: The Second Story


Год выпуска: 1987
Выпущено: США
Жанр: Ужасы , Триллер
Продолжительность: 01:24:34
Перевод№1: Профессиональный (многоголосый)
Перевод№2: Авторский (Одноголосый) Визгунов
Перевод№3: Авторский (Одноголосый) Гаврилов
Оригинальная Английская дорожка
Субтитры: нет

Режиссер: Этан Уайли / Ethan Wiley

В ролях: Ари Гросс, Джонатан Старк, Ройал Дэно, Билл Мехер, Джон Ратценбергер, Лар Парк-Линкольн, Эми Ясбек, Грегори Уэлкотт, Дуайр Браун, Ленора Мэй...

Описание: Молодой человек наследует старый дом и приглашает переехать туда свою подругу. С ними происходит ряд мистических случаев, что заставляет парня разрыть могилу своего давно умершего деда, который оказывается жив. И так все еще только начинается…




Качество: DVDRip
Формат: MKV
Видео кодек: XviD
Аудио кодек: AC3
Видео: 720x400 (1.80:1), 25 fps, XviD build 50 ~2016 kbps avg, 0.28 bit/pixel
Аудио #1: 48 kHz, AC3 Dolby Digital, 3/2 (L,C,R,l,r) + LFE ch, ~448 kbps - MVO
Аудио #2: 48 kHz, AC3 Dolby Digital, 2ch, 256.00 Kbps avg - AVO (Визгунов)
Аудио #3: 48 kHz, AC3 Dolby Digital, 2ch, 256.00 Kbps avg - AVO (Гаврилов)
Аудио #4: 48 kHz, AC3 Dolby Digital, 3/2 (L,C,R,l,r) + LFE ch, ~448 kbps ENG

Цитата:

General
Complete name : J:\VIDEO\Films\Дом 2 Проклятая обитель House II The Second Story (1987)\Дом 2.mkv
Format : Matroska
File size : 2.02 GiB
Duration : 1h 24mn
Overall bit rate : 3 425 Kbps
Encoded date : UTC 2013-12-15 01:05:38
Writing application : mkvmerge v4.3.0 ('Escape from the Island') сборка от Sep 5 2010 10:30:51
Writing library : libebml v1.0.0 + libmatroska v1.0.0

Video
ID : 1
Format : MPEG-4 Visual
Format profile : Advanced Simple@L5
Format settings, BVOP : Yes
Format settings, QPel : No
Format settings, GMC : No warppoints
Format settings, Matrix : Custom
Codec ID : XVID
Codec ID/Hint : XviD
Duration : 1h 24mn
Bit rate : 1 949 Kbps
Width : 720 pixels
Height : 400 pixels
Display aspect ratio : 16:9
Frame rate : 25.000 fps
Resolution : 8 bits
Colorimetry : 4:2:0
Scan type : Progressive
Bits/(Pixel*Frame) : 0.271
Stream size : 1.15 GiB (57%)
Writing library : XviD 1.2.1 (UTC 2008-12-04)

Audio #1
ID : 2
Format : AC-3
Format/Info : Audio Coding 3
Codec ID : A_AC3
Duration : 1h 24mn
Bit rate mode : Constant
Bit rate : 448 Kbps
Channel(s) : 6 channels
Channel positions : Front: L C R, Surround: L R, LFE
Sampling rate : 48.0 KHz
Video delay : 160ms
Stream size : 271 MiB (13%)
Title : MVO
Language : Russian

Audio #2
ID : 3
Format : AC-3
Format/Info : Audio Coding 3
Codec ID : A_AC3
Duration : 1h 24mn
Bit rate mode : Constant
Bit rate : 256 Kbps
Channel(s) : 2 channels
Channel positions : L R
Sampling rate : 48.0 KHz
Stream size : 155 MiB (7%)
Title : AVO (Визгунов)
Language : Russian

Audio #3
ID : 4
Format : AC-3
Format/Info : Audio Coding 3
Codec ID : A_AC3
Duration : 1h 24mn
Bit rate mode : Constant
Bit rate : 256 Kbps
Channel(s) : 2 channels
Channel positions : L R
Sampling rate : 48.0 KHz
Stream size : 155 MiB (7%)
Title : AVO (Гаврилов)
Language : Russian

Audio #4
ID : 5
Format : AC-3
Format/Info : Audio Coding 3
Codec ID : A_AC3
Duration : 1h 24mn
Bit rate mode : Constant
Bit rate : 448 Kbps
Channel(s) : 6 channels
Channel positions : Front: L C R, Surround: L R, LFE
Sampling rate : 48.0 KHz
Stream size : 271 MiB (13%)
Title : Original Eng







Скачать Дом.2.Проклятая.обитель.House.II.The.Second.Story.(Этан.Уайли.Ethan.Wiley).[1987.Ужасы.Триллер.DVDRip].[MVO].[AVO.(Визгунов.Гаврилов)].+.[Original.Eng].torrent без регистрации
Золото ЗОЛОТАЯ РАЗДАЧА! СКАЧАННОЕ НЕ ЗАСЧИТЫВАЕТСЯ! Золото
Дата: Зарегистрирован   [ Тип: внутренний ] Как тут cкачать?
MAGNET ссылка
MAGNET ссылка


Скачать .torrent

11 KB

Статус: проверено DHT
Скачан: торрент - 140 раз, раздача полностью - 0 раз
Размер: 2,02 GB
Оценка:  5 (Голосов: 3)
Поблагодарили: 4
Поделиться ссылкой на эту раздачу с друзьями:
В контактеFacebookОдноклассникиTwitterLivejournalМой МирLiveinternet
 

 

serega051282

[] 

На втором фото СОБЧАК такая страшная ag ag ag
 

jon99

[] 

ag
 
Показать сообщения:    


Вы не можете начинать темы
Вы не можете отвечать на сообщения
Вы не можете редактировать свои сообщения
Вы не можете удалять свои сообщения
Вы не можете голосовать в опросах
Вы не можете прикреплять файлы к сообщениям
Вы можете скачивать файлы