Loading...
Error

Скачать Подглядывающий / Peeping Tom (Майкл Пауэлл) [1960, триллер, BDRip] [MVO]+[AVO]+[Sub] торрент без регистрации

 
Статистика раздачи
Размер:  1,77 GB   |    Скачан:  109 раз
Сидов:  1  [  0 KB/s  ]  
 
Автор Сообщение

Marsianka

[] 

Название: Подглядывающий
Оригинальное название: Peeping Tom
Год выпуска: 1960
Жанр: триллер
Выпущено: Великобритания, Michael Powell (Theatre)
Режиссер: Майкл Пауэлл
В ролях: Карлхайнц Бём, Мойра Ширер, Анна Мэсси, Максин Одли, Бренда Брюс, Майлз Маллсон, Эзмонд Найт, Мартин Миллер, Майкл Гудлифф, Джек Уотсон

О фильме: Молодой человек Марк снимает на кинокамеру проститутку. Он снимает искажённое ужасом лицо, когда камера приближается к ней. В это время из ножки штатива внезапно высовывается пика и убивает её. Позднее он снимает момент, когда труп проститутки забирает полиция. Марк фотографирует обнажённых молодых женщин в студии, расположенной под бутиком, владелец которого приторговывает фотографиями голых женщин...

Качество: BDRip
Видео: XviD, 1901 Кбит/с, 720x432
Аудио: Русский, английский (AC3, 2 ch, 192 кбит/с)
Размер: 1.77 ГБ
Продолжительность: 01:41:39
Перевод: Профессиональный многоголосый (Спб, 5 канал), авторский (Сергей Кузнецов)
Субтитры: Русские, английские (внешние)

Исходник: Renesаns (Кинозал)

Сравнение с исходником

Общее
Полное имя : E:VideoPodgljadyvajushij.1960.XviD.BDRipPodgljadyvajushij.1960.eng.srt
Формат : SubRip
Размер файла : 80,8 Кбайт

Текст
Формат : SubRip
Метод сжатия : Без потерь

Общее
Полное имя : E:VideoPodgljadyvajushij.1960.XviD.BDRipPodgljadyvajushij.1960.Original.eng.ac3
Формат : AC-3
Формат/Информация : Audio Coding 3
Размер файла : 140 Мбайт
Продолжительность : 1 ч. 41 м.
Режим общего битрейта : Постоянный
Общий поток : 192 Кбит/сек

Аудио
Формат : AC-3
Формат/Информация : Audio Coding 3
Расширение режима : CM (complete main)
Параметр Endianness формата : Big
Продолжительность : 1 ч. 41 м.
Вид битрейта : Постоянный
Битрейт : 192 Кбит/сек
Каналы : 2 канала
Расположение каналов : Front: L R
Частота : 48,0 КГц
Битовая глубина : 16 бит
Метод сжатия : С потерями
Размер потока : 140 Мбайт (100%)

Общее
Полное имя : E:VideoPodgljadyvajushij.1960.XviD.BDRipPodgljadyvajushij.1960.rus.urikis.srt
Формат : SubRip
Размер файла : 106 Кбайт

Текст
Формат : SubRip
Метод сжатия : Без потерь

Общее
Полное имя : E:VideoPodgljadyvajushij.1960.XviD.BDRipPodgljadyvajushij.1960.XviD.BDRip.avi
Формат : AVI
Формат/Информация : Audio Video Interleave
Размер файла : 1,63 Гбайт
Продолжительность : 1 ч. 41 м.
Общий поток : 2299 Кбит/сек
Программа кодирования : VirtualDubMod 1.5.10.2 (build 2540/release)
Библиотека кодирования : VirtualDubMod build 2540/release

Видео
Идентификатор : 0
Формат : MPEG-4 Visual
Профиль формата : Advanced Simple@L5
Параметр BVOP формата : 1
Параметр QPel формата : Нет
Параметр GMC формата : Без точки перехода
Параметр матрицы формата : Default (H.263)
Режим смешивания : Сжатый битовый поток
Идентификатор кодека : XVID
Идентификатор кодека/Подсказка : XviD
Продолжительность : 1 ч. 41 м.
Битрейт : 1901 Кбит/сек
Ширина : 720 пикселей
Высота : 432 пикселя
Соотношение сторон : 1,667
Частота кадров : 24,000 кадра/сек
Цветовое пространство : YUV
Субдискретизация насыщенности : 4:2:0
Битовая глубина : 8 бит
Тип развёртки : Прогрессивная
Метод сжатия : С потерями
Бит/(Пиксели*Кадры) : 0.255
Размер потока : 1,35 Гбайт (83%)
Библиотека кодирования : XviD 1.2.1 (UTC 2008-12-04)

Аудио #1
Идентификатор : 1
Формат : AC-3
Формат/Информация : Audio Coding 3
Расширение режима : CM (complete main)
Параметр Endianness формата : Big
Идентификатор кодека : 2000
Продолжительность : 1 ч. 41 м.
Вид битрейта : Постоянный
Битрейт : 192 Кбит/сек
Каналы : 2 канала
Расположение каналов : Front: L R
Частота : 48,0 КГц
Битовая глубина : 16 бит
Метод сжатия : С потерями
Размер потока : 140 Мбайт (8%)
Выравнивание : Разделение по промежуткам
Продолжительность промежутка : 42 мс. (1,00 видеокадр)
Время предзагрузки промежутка : 500 мс.

Аудио #2
Идентификатор : 2
Формат : AC-3
Формат/Информация : Audio Coding 3
Расширение режима : CM (complete main)
Параметр Endianness формата : Big
Идентификатор кодека : 2000
Продолжительность : 1 ч. 41 м.
Вид битрейта : Постоянный
Битрейт : 192 Кбит/сек
Каналы : 2 канала
Расположение каналов : Front: L R
Частота : 48,0 КГц
Битовая глубина : 16 бит
Метод сжатия : С потерями
Размер потока : 140 Мбайт (8%)
Выравнивание : Разделение по промежуткам
Продолжительность промежутка : 42 мс. (1,00 видеокадр)
Время предзагрузки промежутка : 500 мс.



Скачать Подглядывающий.Peeping.Tom.(Майкл.Пауэлл).[1960.триллер.BDRip].[MVO]+[AVO]+[Sub].torrent без регистрации
Золото ЗОЛОТАЯ РАЗДАЧА! СКАЧАННОЕ НЕ ЗАСЧИТЫВАЕТСЯ! Золото
Дата: Зарегистрирован   [ Тип: внутренний ] Как тут cкачать?
MAGNET ссылка
MAGNET ссылка


Скачать .torrent

18 KB

Статус: проверено DHT
Скачан: торрент - 109 раз, раздача полностью - 3 раз
Размер: 1,77 GB
Оценка:  - (Голосов: 0)
Поблагодарили: 1
Поделиться ссылкой на эту раздачу с друзьями:
В контактеFacebookОдноклассникиTwitterLivejournalМой МирLiveinternet
 

 
Показать сообщения:    


Вы не можете начинать темы
Вы не можете отвечать на сообщения
Вы не можете редактировать свои сообщения
Вы не можете удалять свои сообщения
Вы не можете голосовать в опросах
Вы не можете прикреплять файлы к сообщениям
Вы можете скачивать файлы