Loading...
Error

Скачать Особый парень: Тупой супергерой / Special (Хэл Хаберман, Джереми Пассмор) [2006, комедия, фантастика, драма, DVDRip-AVC] [DVO] торрент без регистрации

 
Статистика раздачи
Размер:  1,78 GB   |    Скачан:  121 раз
Сидов:  1  [  0 KB/s  ]   Личеров:  1  [  0 KB/s  ]  
 
Автор Сообщение

Marsianka

[] 

Информация о фильме
Название: Особый парень: Тупой супергерой
Год выхода: 2006
Жанр: комедия, фантастика, драма
Режиссер: Хэл Хаберман, Джереми Пассмор
В ролях: Майкл Рапапорт, Пол Блекторн, Джош Пек, Роберт Бэйкер, Джек Келер, Александра Холден, Иэн Боэн, Кристофер Дарга, Эрик Андерсон, Дэвид Беар

О фильме:
Лэс Франкен ведет ничем не примечательную жизнь и любит читать комиксы. Но его жизнь меняется, когда он решает принять участие в программе испытания нового антидепрессанта "Особый". Лэс обнаруживает у себя способность летать, читать чужие мысли и даже проходить сквозь стены...



Страна: США
Студия: Rival Pictures
Продолжительность: 01:21:11
Перевод: Профессиональный (двухголосый закадровый) CP DigitaL

Файл
Кодек: h.264
Качество: DVDRip-AVC
Видео: 720x464 (1.85:1) @ 846x464(анаморф), 23.976 fps, AVC, ~2246 Kbps, 0.280 bits/pixel
Русский, 48.0 KHz, AC3, 6 ch, 448 Kbps
Английский, 48.0 KHz, AC3, 6 ch, 448 Kbps
Субтитры: нет
Исходник видео R5 СP Digital=R1
Общее
Уникальный идентификатор : 173431749989871237997099197644407022805 (0x8279BD74A83D3DECBA175763B703A4D5)
Полное имя : D:FilmsOsobiy_Paren.2006.DVDRip-AVC.mkv
Формат : Matroska
Версия формата : Version 4 / Version 2
Размер файла : 1,78 Гбайт
Продолжительность : 1 ч. 21 м.
Общий поток : 3142 Кбит/сек
Дата кодирования : UTC 2013-12-14 15:14:18
Программа кодирования : mkvmerge v6.6.0 ('The Edge Of The In Between') built on Dec 1 2013 17:55:00
Библиотека кодирования : libebml v1.3.0 + libmatroska v1.4.1

Видео
Идентификатор : 1
Формат : AVC
Формат/Информация : Advanced Video Codec
Профиль формата : High@L4.1
Параметр CABAC формата : Да
Параметр ReFrames формата : 16 кадров
Идентификатор кодека : V_MPEG4/ISO/AVC
Продолжительность : 1 ч. 21 м.
Битрейт : 2246 Кбит/сек
Ширина : 720 пикселей
Высота : 464 пикселя
Соотношение сторон : 1,85:1
Соотношение сторон в оригинале : 1,85:1
Режим частоты кадров : Постоянный
Частота кадров : 23,976 кадра/сек
Цветовое пространство : YUV
Субдискретизация насыщенности : 4:2:0
Битовая глубина : 8 бит
Тип развёртки : Прогрессивная
Бит/(Пиксели*Кадры) : 0.280
Размер потока : 1,24 Гбайт (69%)
Библиотека кодирования : x264 core 138 r2358 9e941d1
Настройки программы : cabac=1 / ref=16 / deblock=1:0:0 / analyse=0x3:0x133 / me=umh / subme=10 / psy=1 / psy_rd=1.05:0.10 / mixed_ref=1 / me_range=32 / chroma_me=1 / trellis=2 / 8x8dct=1 / cqm=0 / deadzone=21,11 / fast_pskip=0 / chroma_qp_offset=-3 / threads=8 / lookahead_threads=2 / sliced_threads=0 / nr=0 / decimate=0 / interlaced=0 / bluray_compat=0 / constrained_intra=0 / bframes=12 / b_pyramid=2 / b_adapt=2 / b_bias=0 / direct=3 / weightb=1 / open_gop=0 / weightp=2 / keyint=240 / keyint_min=23 / scenecut=40 / intra_refresh=0 / rc_lookahead=60 / rc=2pass / mbtree=0 / bitrate=2246 / ratetol=1.0 / qcomp=0.60 / qpmin=0 / qpmax=60 / qpstep=4 / cplxblur=20.0 / qblur=0.5 / vbv_maxrate=50000 / vbv_bufsize=62500 / nal_hrd=none / ip_ratio=1.40 / pb_ratio=1.30 / aq=1:1.00
Default : Нет
Forced : Нет
Коэффициенты матрицы : BT.601

Аудио #1
Идентификатор : 2
Формат : AC-3
Формат/Информация : Audio Coding 3
Расширение режима : CM (complete main)
Параметр Endianness формата : Big
Идентификатор кодека : A_AC3
Продолжительность : 1 ч. 21 м.
Вид битрейта : Постоянный
Битрейт : 448 Кбит/сек
Каналы : 6 каналов
Расположение каналов : Front: L C R, Side: L R, LFE
Частота : 48,0 КГц
Битовая глубина : 16 бит
Метод сжатия : С потерями
Размер потока : 260 Мбайт (14%)
Язык : Russian
Default : Да
Forced : Нет

Аудио #2
Идентификатор : 3
Формат : AC-3
Формат/Информация : Audio Coding 3
Расширение режима : CM (complete main)
Параметр Endianness формата : Big
Идентификатор кодека : A_AC3
Продолжительность : 1 ч. 21 м.
Вид битрейта : Постоянный
Битрейт : 448 Кбит/сек
Каналы : 6 каналов
Расположение каналов : Front: L C R, Side: L R, LFE
Частота : 48,0 КГц
Битовая глубина : 16 бит
Метод сжатия : С потерями
Размер потока : 260 Мбайт (14%)
Язык : English
Default : Нет
Forced : Нет

Меню
00:00:00.000 : en:Chapter 01
00:06:05.868 : en:Chapter 02
00:11:56.802 : en:Chapter 03
00:20:37.169 : en:Chapter 04
00:24:55.336 : en:Chapter 05
00:28:52.336 : en:Chapter 06
00:39:21.803 : en:Chapter 07
00:48:32.137 : en:Chapter 08
00:53:33.904 : en:Chapter 09
00:59:50.738 : en:Chapter 10
01:09:17.539 : en:Chapter 11
01:16:44.739 : en:Chapter 12
Релиз от: Temperest



Скачать Особый.парень.Тупой.супергерой.Special.(Хэл.Хаберман.Джереми.Пассмор).[2006.комедия.фантастика.драма.DVDRip-AVC].[DVO].torrent без регистрации
Золото ЗОЛОТАЯ РАЗДАЧА! СКАЧАННОЕ НЕ ЗАСЧИТЫВАЕТСЯ! Золото
Дата: Зарегистрирован   [ Тип: внутренний ] Как тут cкачать?
MAGNET ссылка
MAGNET ссылка


Скачать .torrent

18 KB

Статус: проверено DHT
Скачан: торрент - 121 раз, раздача полностью - 16 раз
Размер: 1,78 GB
Оценка:  5 (Голосов: 1)
Поблагодарили: 4
Поделиться ссылкой на эту раздачу с друзьями:
В контактеFacebookОдноклассникиTwitterLivejournalМой МирLiveinternet
 

 
Показать сообщения:    


Вы не можете начинать темы
Вы не можете отвечать на сообщения
Вы не можете редактировать свои сообщения
Вы не можете удалять свои сообщения
Вы не можете голосовать в опросах
Вы не можете прикреплять файлы к сообщениям
Вы можете скачивать файлы