Loading...
Error

Скачать Стиратель / Eraser (Чарлз Расселл) [1996, боевик, драма, триллер, BDRip] [AVO] (Ю.Живов) торрент без регистрации

 
Статистика раздачи
Размер:  1,71 GB   |    Скачан:  117 раз
Сидов:  1  [  0 KB/s  ]  
 
Автор Сообщение

leon030982

[] 

Стиратель / Eraser



Год выпуска: 1996
Страна: США, Warner Bros. Pictures
Жанр: Боевик, Драма, Триллер
Продолжительность: 01:54:31
Перевод: Авторский (одноголосный, закадровый) [Ю.Живов]
Субтитры: нет
Режиссер: Чарлз Расселл / Charles Russell
В ролях: Арнольд Шварценеггер /Arnold Schwarzenegger/, Джеймс Каан /James Caan/, Ванесса Уильямс /Vanessa Williams/, Джеймс Коберн /James Coburn/, Ник Чинланд /Nick Chinlund/, Роберт Пасторелли /Robert Pastorelli
Описание: Джон Крюгер "стирает" из прошлого и настоящего все следы людей, находящихся под охраной Программы защиты свидетелей. Ему надо защитить Ли Каллен, которая готова разоблачить сделку по продаже преступникам нового супероружия. Крюгер должен спасти и ее и себя, и начинается марафон не на жизнь, а на смерть, где ему предстоит прыгать с самолета вслед за парашютом, сражаться с аллигаторами, преодолевать суперсовременные системы безопасности и противостоять киллерам с новейшим оружием.


Бюджет: $100 000 000
Премьера в мире: 11 июня 1996


Качество: BDRip (Исходник Blu-Ray)
Формат: AVI
Видео кодек: XviD
Аудио кодек: AC-3
Видео: 720x304 (2.37:1), 23.976 fps, XviD build 50 ~1941 kbps avg, 0.37 bit/pixel
Аудио: 48 kHz, AC3 Dolby Digital, 2/0 (L,R) ch, ~192.00 kbps avg
Дорожка Ю.Живова из коллекции VHS от ermak1990 --- спасибо!
Дорожка с Ю. Живовым синхронизирована, ремастирована, и наложена ale_x2008 при помощи Sony Vegas и VirtualDubMod --- спасибо!
General
Complete name : E:\Eraser.1996.BDRip.[AVO] (Jivov).km.avi
Format : AVI
Format/Info : Audio Video Interleave
File size : 1.71 GiB
Duration : 1h 54mn
Overall bit rate : 2 143 Kbps
Genre : Action
Writing application : VirtualDubMod 1.5.10.3 (build 2550/release)
Writing library : VirtualDubMod build 2550/release

Video
ID : 0
Format : MPEG-4 Visual
Format profile : Advanced Simple@L5
Format settings, BVOP : 1
Format settings, QPel : No
Format settings, GMC : No warppoints
Format settings, Matrix : Custom
Codec ID : XVID
Codec ID/Hint : XviD
Duration : 1h 54mn
Bit rate : 1 941 Kbps
Width : 720 pixels
Height : 304 pixels
Display aspect ratio : 2.35:1
Frame rate : 23.976 fps
Color space : YUV
Chroma subsampling : 4:2:0
Bit depth : 8 bits
Scan type : Progressive
Compression mode : Lossy
Bits/(Pixel*Frame) : 0.370
Stream size : 1.55 GiB (91%)
Writing library : XviD 1.2.1 (UTC 2008-12-04)

Audio
ID : 1
Format : AC-3
Format/Info : Audio Coding 3
Mode extension : CM (complete main)
Codec ID : 2000
Duration : 1h 54mn
Bit rate mode : Constant
Bit rate : 192 Kbps
Channel(s) : 2 channels
Channel positions : Front: L R
Sampling rate : 48.0 KHz
Bit depth : 16 bits
Compression mode : Lossy
Stream size : 157 MiB (9%)
Alignment : Split accross interleaves
Interleave, duration : 42 ms (1.00 video frame)
Interleave, preload duration : 500 ms



Скачать Стиратель.Eraser.(Чарлз.Расселл).[1996.боевик.драма.триллер.BDRip].[AVO].(Ю.Живов).torrent без регистрации
Золото ЗОЛОТАЯ РАЗДАЧА! СКАЧАННОЕ НЕ ЗАСЧИТЫВАЕТСЯ! Золото
Дата: Зарегистрирован   [ Тип: внутренний ] Как тут cкачать?
MAGNET ссылка
MAGNET ссылка


Скачать .torrent

18 KB

Статус: проверено DHT
Скачан: торрент - 117 раз, раздача полностью - 6 раз
Размер: 1,71 GB
Оценка:  5 (Голосов: 1)
Поблагодарили: 1
Поделиться ссылкой на эту раздачу с друзьями:
В контактеFacebookОдноклассникиTwitterLivejournalМой МирLiveinternet
 

 
Показать сообщения:    


Вы не можете начинать темы
Вы не можете отвечать на сообщения
Вы не можете редактировать свои сообщения
Вы не можете удалять свои сообщения
Вы не можете голосовать в опросах
Вы не можете прикреплять файлы к сообщениям
Вы можете скачивать файлы