Loading...
Error

Скачать В сердце лжи / Au coeur du mensonge (Клод Шаброль) [1999, драма, криминал, DVDRip-AVC] [DVO]+[Sub] торрент без регистрации

 
Статистика раздачи
Размер:  1,73 GB   |    Скачан:  116 раз

Полного источника не было: 20 минут

 
Автор Сообщение

Marsianka

[] 

Информация о фильме
Название: В сердце лжи
Оригинальное название: Au coeur du mensonge
Год выхода: 1999
Жанр: драма, криминал
Режиссер: Клод Шаброль / Claude Chabrol
В ролях: Сандрин Боннэр, Жак Гамблен, Антуан де Кон, Валерия Бруни-Тедески, Бернар Верле, Бюль Ожье, Пьер Марто, Noлl Simsolo, Родольф Поли, Эдриэнн Поли

О фильме:
В рыбацком поселке найдено тело десятилетней девочки. Художник и преподаватель живописи Рене последний человек, который видел ее живой тут же оказывается под подозрением полицейского инспектора. Рене чужак в этих местах, поэтому, даже несмотря на отсутствие улик, по городу ползут слухи, что именно он убийца, люди начинают сторониться художника, а ученики перестают ходить на его уроки. Вивиан, жена Рене, пытается вступиться за мужа и идет на открытый конфликт с полицейским инспектором. Когда обнаруживается еще одно мертвое тело, жизнь в поселке замирает окончательно...



Страна: Франция
Студия: Canal+, France 3 Cinema, MK2 Productions
Продолжительность: 01:48:24
Перевод: Профессиональный (двухголосый закадровый) Cтудия NLS

Файл
Кодек: h.264
Качество: DVDRip-AVC
Видео: 640x560 (1.614) @ 904x560(анаморф), 25.000 fps, AVC, ~1866 Kbps, 0.208 bits/pixel
Звук:
Французский, 48.0 KHz, AC3, 2 ch, 256 Kbps
Русский, 48.0 KHz, AC3, 2 ch, 160 Kbps
Субтитры: Английские, VobSub
Общее
Уникальный идентификатор : 191107698518358621024139768819332881054 (0x8FC60100C42F3939A55FB331FC831A9E)
Полное имя : D:FilmsV_serdtse_lzhi.1999.DVDRip-AVC.mkv
Формат : Matroska
Версия формата : Version 4 / Version 2
Размер файла : 1,73 Гбайт
Продолжительность : 1 ч. 48 м.
Общий поток : 2287 Кбит/сек
Дата кодирования : UTC 2013-12-14 15:23:19
Программа кодирования : mkvmerge v6.6.0 ('The Edge Of The In Between') built on Dec 1 2013 17:55:00
Библиотека кодирования : libebml v1.3.0 + libmatroska v1.4.1

Видео
Идентификатор : 1
Формат : AVC
Формат/Информация : Advanced Video Codec
Профиль формата : High@L4.1
Параметр CABAC формата : Да
Параметр ReFrames формата : 16 кадров
Идентификатор кодека : V_MPEG4/ISO/AVC
Продолжительность : 1 ч. 48 м.
Битрейт : 1866 Кбит/сек
Ширина : 640 пикселей
Высота : 560 пикселей
Соотношение сторон : 16:10
Соотношение сторон в оригинале : 16:10
Режим частоты кадров : Постоянный
Частота кадров : 25,000 кадров/сек
Цветовое пространство : YUV
Субдискретизация насыщенности : 4:2:0
Битовая глубина : 8 бит
Тип развёртки : Прогрессивная
Бит/(Пиксели*Кадры) : 0.208
Размер потока : 1,38 Гбайт (80%)
Библиотека кодирования : x264 core 138 r2358 9e941d1
Настройки программы : cabac=1 / ref=16 / deblock=1:0:0 / analyse=0x3:0x133 / me=umh / subme=10 / psy=1 / psy_rd=1.05:0.10 / mixed_ref=1 / me_range=32 / chroma_me=1 / trellis=2 / 8x8dct=1 / cqm=0 / deadzone=21,11 / fast_pskip=0 / chroma_qp_offset=-3 / threads=8 / lookahead_threads=1 / sliced_threads=0 / nr=0 / decimate=0 / interlaced=0 / bluray_compat=0 / constrained_intra=0 / bframes=8 / b_pyramid=2 / b_adapt=2 / b_bias=0 / direct=3 / weightb=1 / open_gop=0 / weightp=2 / keyint=250 / keyint_min=25 / scenecut=40 / intra_refresh=0 / rc_lookahead=60 / rc=2pass / mbtree=0 / bitrate=1866 / ratetol=1.0 / qcomp=0.60 / qpmin=0 / qpmax=60 / qpstep=4 / cplxblur=20.0 / qblur=0.5 / vbv_maxrate=50000 / vbv_bufsize=62500 / nal_hrd=none / ip_ratio=1.40 / pb_ratio=1.30 / aq=1:1.00
Default : Нет
Forced : Нет
Коэффициенты матрицы : BT.601

Аудио #1
Идентификатор : 2
Формат : AC-3
Формат/Информация : Audio Coding 3
Расширение режима : CM (complete main)
Параметр Endianness формата : Big
Идентификатор кодека : A_AC3
Продолжительность : 1 ч. 48 м.
Вид битрейта : Постоянный
Битрейт : 256 Кбит/сек
Каналы : 2 канала
Расположение каналов : Front: L R
Частота : 48,0 КГц
Битовая глубина : 16 бит
Метод сжатия : С потерями
Размер потока : 198 Мбайт (11%)
Язык : French
Default : Нет
Forced : Нет

Аудио #2
Идентификатор : 3
Формат : AC-3
Формат/Информация : Audio Coding 3
Расширение режима : CM (complete main)
Параметр Endianness формата : Big
Идентификатор кодека : A_AC3
Продолжительность : 1 ч. 48 м.
Вид битрейта : Постоянный
Битрейт : 160 Кбит/сек
Каналы : 2 канала
Расположение каналов : Front: L R
Частота : 48,0 КГц
Битовая глубина : 16 бит
Метод сжатия : С потерями
Размер потока : 124 Мбайт (7%)
Язык : Russian
Default : Да
Forced : Нет

Текст
Идентификатор : 4
Формат : VobSub
Режим смешивания : zlib
Идентификатор кодека : S_VOBSUB
Идентификатор кодека/Информация : The same subtitle format used on DVDs
Язык : English
Default : Нет
Forced : Нет

Меню
00:00:00.000 : en:Chapter 01
00:09:33.160 : en:Chapter 02
00:17:38.520 : en:Chapter 03
00:24:44.640 : en:Chapter 04
00:33:26.040 : en:Chapter 05
00:44:11.040 : en:Chapter 06
00:52:52.840 : en:Chapter 07
01:01:38.040 : en:Chapter 08
01:13:38.600 : en:Chapter 09
01:24:03.200 : en:Chapter 10
01:31:24.600 : en:Chapter 11
01:39:57.080 : en:Chapter 12
01:47:25.240 : en:Chapter 13
Исходник видео - R2 Релиз от: Temperest



Скачать В.сердце.лжи.Au.coeur.du.mensonge.(Клод.Шаброль).[1999.драма.криминал.DVDRip-AVC].[DVO]+[Sub].torrent без регистрации
Золото ЗОЛОТАЯ РАЗДАЧА! СКАЧАННОЕ НЕ ЗАСЧИТЫВАЕТСЯ! Золото
Дата: Зарегистрирован   [ Тип: внутренний ] Как тут cкачать?
MAGNET ссылка
MAGNET ссылка


Скачать .torrent

18 KB

Статус: проверено DHT
Скачан: торрент - 116 раз, раздача полностью - 3 раз
Размер: 1,73 GB
Оценка:  - (Голосов: 0)
Поблагодарили: 2
Поделиться ссылкой на эту раздачу с друзьями:
В контактеFacebookОдноклассникиTwitterLivejournalМой МирLiveinternet
 

 
Показать сообщения:    


Вы не можете начинать темы
Вы не можете отвечать на сообщения
Вы не можете редактировать свои сообщения
Вы не можете удалять свои сообщения
Вы не можете голосовать в опросах
Вы не можете прикреплять файлы к сообщениям
Вы можете скачивать файлы