Loading...
Error

Скачать Капитан Рон / Captain Ron (Том Эберхардт / Thom Eberhardt) [1992 г., Комедия, WEB-DLRip] [DVO] (Видеосервис) торрент без регистрации

 
Статистика раздачи
Размер:  1,46 GB   |    Скачан:  131 раз
Сидов:  1  [  0 KB/s  ]  
 
Автор Сообщение

leon030982

[] 

Капитан Рон / Captain Ron


Год выпуска: 1992
Страна: США
Жанр: Комедия
Продолжительность: 01:40:05
Перевод: Профессиональный (двухголосый, закадровый)[Видеосервис]
Субтитры: Нет

Режиссер: Том Эберхардт / Thom Eberhardt

В ролях: Курт Расселл, Мартин Шорт, Мэри Кэй Плэйс, Бенджамин Солсбери, Медоу Систо и др.

Описание:
Бизнесмен Мартин Харви, получив в наследство настоящую яхту, решает отправиться вместе со своим семейством в путешествие. Правда, яхта - это громко сказано. На самом деле это старая развалина. Но оптимист Харви не склонен менять свои решения. Сам он не умеет управлять яхтой. Остается подыскать человека, который согласится встать к штурвалу этой старой посудины. И вот на пристани Мартин встречает одноглазого длинноволосого незнакомца. Капитана Рона не пришлось долго уговаривать... Правда, как выяснилось, с таким капитаном и айсберг не нужен...



Качество видео: WEB-DLRip
Формат видео: AVI
Видео кодек: XviD
Аудио кодек: AC3
Видео: 720x400, 23.976 fps, XviD build 64 ~1889 kbps avg, 0.274 bit/pixel
Аудио: 48 kHz, AC3 Dolby Digital, 2/0 (L,R) ch, ~192 kbps [Видеосервис] VHSRip

Рип с WEB-DL 720p
За оцифровку перевода с VHS спасибо Fikaloid. Роли озвучивали Игорь Тарадайкин и Любовь Германова.
General
Complete name : D:\Кино\Captain.Ron\Captain.Ron.1992.WEB-DLRip-VS.avi
Format : AVI
Format/Info : Audio Video Interleave
File size : 1.46 GiB
Duration : 1h 40mn
Overall bit rate : 2 090 Kbps
Writing application : VirtualDubMod 1.5.10.2 (build 2540/release)
Writing library : VirtualDubMod build 2540/release
Video
ID : 0
Format : MPEG-4 Visual
Format profile : Advanced Simple@L5
Format settings, BVOP : 2
Format settings, QPel : No
Format settings, GMC : No warppoints
Format settings, Matrix : Default (MPEG)
Codec ID : XVID
Codec ID/Hint : XviD
Duration : 1h 40mn
Bit rate : 1 889 Kbps
Width : 720 pixels
Height : 400 pixels
Display aspect ratio : 16:9
Frame rate : 23.976 fps
Color space : YUV
Chroma subsampling : 4:2:0
Bit depth : 8 bits
Scan type : Progressive
Compression mode : Lossy
Bits/(Pixel*Frame) : 0.274
Stream size : 1.32 GiB (90%)
Writing library : XviD 64
Audio
ID : 1
Format : AC-3
Format/Info : Audio Coding 3
Mode extension : CM (complete main)
Format settings, Endianness : Big
Codec ID : 2000
Duration : 1h 40mn
Bit rate mode : Constant
Bit rate : 192 Kbps
Channel(s) : 2 channels
Channel positions : Front: L R
Sampling rate : 48.0 KHz
Bit depth : 16 bits
Compression mode : Lossy
Stream size : 137 MiB (9%)
Alignment : Split accross interleaves
Interleave, duration : 42 ms (1.00 video frame)
Interleave, preload duration : 500 ms



Скачать Капитан.Рон.Captain.Ron.(Том.Эберхардт.Thom.Eberhardt).[1992.г.Комедия.WEB-DLRip].[DVO].(Видеосервис).torrent без регистрации
Золото ЗОЛОТАЯ РАЗДАЧА! СКАЧАННОЕ НЕ ЗАСЧИТЫВАЕТСЯ! Золото
Дата: Зарегистрирован   [ Тип: внутренний ] Как тут cкачать?
MAGNET ссылка
MAGNET ссылка


Скачать .torrent

2 KB

Статус: проверено DHT
Скачан: торрент - 131 раз, раздача полностью - 4 раз
Размер: 1,46 GB
Оценка:  - (Голосов: 0)
Поблагодарили: 2
Поделиться ссылкой на эту раздачу с друзьями:
В контактеFacebookОдноклассникиTwitterLivejournalМой МирLiveinternet
 

 
Показать сообщения:    


Вы не можете начинать темы
Вы не можете отвечать на сообщения
Вы не можете редактировать свои сообщения
Вы не можете удалять свои сообщения
Вы не можете голосовать в опросах
Вы не можете прикреплять файлы к сообщениям
Вы можете скачивать файлы