Loading...
Error

Скачать Во всем виноват Рио / Blame It On Rio (Стэнли Донен / Stanley Donen) [1984, Мелодрама, комедия, HDTVRip] [MVO] + [AVO] (Гаврилов) + [AVO] (Санаев) торрент без регистрации

 
Статистика раздачи
Размер:  1,85 GB   |    Скачан:  105 раз
Сидов:  1  [  0 KB/s  ]  
 
Автор Сообщение

leon030982

[] 

Во всем виноват Рио / Blame It On Rio


Год выхода:1984
Страна: США
Жанр: Комедия, Мелодрама
Продолжительность: 01:39:54
Перевод №1: Профессиональный (многоголосый, закадровый)
Перевод №2: Авторский (одноголосый, закадровый) [Гаврилов]
Перевод №3: Авторский (одноголосый, закадровый) [Санаев]
Cубтитры: нет

Режиссер: Стэнли Донен / Stanley Donen

В ролях: Майкл Кейн / Michael Caine, Джозеф Болонья / Joseph Bologna, Валери Харпер / Valerie Harper, Мишель Джонсон / Michelle Johnson, Деми Мур / Demi Moore, Хосе Льюгой / Jose Lewgoy

О фильме: Римейк французского фильма "Один дикий момент". Мужчина средних лет (великолепная роль Кэйна) едет с другом (Болонья), со своей и его дочерью отдыхать в Рио, где влюбляется в несовершеннолетнюю подругу (Джонсон) своей дочурки (Мур явно нервничает в сценах, где ей приходится обнажаться), которая его явно соблазнила. Когда папа и друг об этом узнали, была мощная и очень смешная сцена. Все это переплетение комичных ситуаций происходит на фоне ослепительной экзотики Рио и под развеселую музыку. (Иванов М.)


Качество видео: HDTVRip [Исходник 1080i]
Формат видео: AVI
Видео кодек: XviD
Аудио кодек: AC3
Видео: 720x400 (1.80:1), 23.976 fps, XviD build 50 ~1878 kbps avg, 0.27 bit/pixel
Аудио#1: 48 kHz, AC3 Dolby Digital, 2/0 (L,R) ch, ~192 kbps
Аудио#2: 48 kHz, AC3 Dolby Digital, 2/0 (L,R) ch, ~192 kbps [Гаврилов] [отдельно]
Аудио#3: 48 kHz, AC3 Dolby Digital, 2/0 (L,R) ch, ~192 kbps [Санаев] [отдельно]

Автор рипа: edich2
General
Complete name : E:\INTERNET\Во всем виноват Рио - Blame It on Rio\Во всем виноват Рио - Blame It on Rio.avi
Format : AVI
Format/Info : Audio Video Interleave
File size : 1.45 GiB
Duration : 1h 39mn
Overall bit rate : 2 080 Kbps
Writing application : VirtualDubMod 1.5.10.2 (build 2540/release)

Video
ID : 0
Format : MPEG-4 Visual
Format profile : Advanced Simple@L5
Format settings, BVOP : 2
Format settings, QPel : No
Format settings, GMC : No warppoints
Format settings, Matrix : Custom
Codec ID : XVID
Codec ID/Hint : XviD
Duration : 1h 39mn
Bit rate : 1 879 Kbps
Width : 720 pixels
Height : 400 pixels
Display aspect ratio : 16:9
Frame rate : 23.976 fps
Color space : YUV
Chroma subsampling : 4:2:0
Bit depth : 8 bits
Scan type : Progressive
Compression mode : Lossy
Bits/(Pixel*Frame) : 0.272
Stream size : 1.31 GiB (90%)
Writing library : XviD 1.2.1 (UTC 2008-12-04)

Audio
ID : 1
Format : AC-3
Format/Info : Audio Coding 3
Mode extension : CM (complete main)
Codec ID : 2000
Duration : 1h 39mn
Bit rate mode : Constant
Bit rate : 192 Kbps
Channel(s) : 2 channels
Channel positions : Front: L R
Sampling rate : 48.0 KHz
Bit depth : 16 bits
Compression mode : Lossy
Stream size : 137 MiB (9%)
Alignment : Split accross interleaves
Interleave, duration : 42 ms (1.00 video frame)
Interleave, preload duration : 500 ms



Скачать Во.всем.виноват.Рио.Blame.It.On.Rio.(Стэнли.Донен.Stanley.Donen).[1984.Мелодрама.комедия.HDTVRip].[MVO].+.[AVO].(Гаврилов).+.[AVO].(Санаев).torrent без регистрации
Золото ЗОЛОТАЯ РАЗДАЧА! СКАЧАННОЕ НЕ ЗАСЧИТЫВАЕТСЯ! Золото
Дата: Зарегистрирован   [ Тип: внутренний ] Как тут cкачать?
MAGNET ссылка
MAGNET ссылка


Скачать .torrent

19 KB

Статус: проверено DHT
Скачан: торрент - 105 раз, раздача полностью - 2 раз
Размер: 1,85 GB
Оценка:  5 (Голосов: 1)
Поблагодарили: 1
Поделиться ссылкой на эту раздачу с друзьями:
В контактеFacebookОдноклассникиTwitterLivejournalМой МирLiveinternet
 

 
Показать сообщения:    


Вы не можете начинать темы
Вы не можете отвечать на сообщения
Вы не можете редактировать свои сообщения
Вы не можете удалять свои сообщения
Вы не можете голосовать в опросах
Вы не можете прикреплять файлы к сообщениям
Вы можете скачивать файлы