Loading...
Error

Скачать Джубал / Jubal (Дэлмер Дэйвс) [1956, вестерн, драма, BDRip-AVC] [AVO]+[Sub] торрент без регистрации

 
Статистика раздачи
Размер:  1,99 GB   |    Скачан:  116 раз
Сидов:  1  [  0 KB/s  ]  
 
Автор Сообщение

Marsianka

[] 

Информация о фильме
Название: Джубал
Оригинальное название: Jubal
Год выхода: 1956
Жанр: вестерн, драма
Режиссер: Дэлмер Дэйвс
В ролях: Гленн Форд, Эрнест Боргнайн, Род Стайгер, Валери Френч, Фелиция Фарр, Бэзил Руисдейл, Ной Бири мл., Чарльз Бронсон, Джон Диркес, Джек Илэм

О фильме:
Семи лет отроду Джубал Труп сбежал от родной матери, скитаясь, соглашался на любую работу, пока не подобрал его Шип Хоген, крупный скотовод, весельчак, да и просто славный малый. Джубал понравился Хогену спокойным характером и любовью к работе, Хоген стал вторым (после отца) человеком, кто поверил Джубалу. Они сошлись. Хоген приблизил Джубала, он сделал его управляющим. Такое быстрое подвижение не могло понравиться Пинки, давно работающего на босса, который сам метил на это место. Вредный, злой на язык Пинки затаил обиду, стал наговаривать на Джубала, всячески чернить его в глазах хозяина. А тут, как на беду, еще и жена Хогена положила на Джубала глаз. Скучно ей, красивой женщине, было в этих диких местах, с этим простоватым мужем, среди коров и лошадей. Прожив с мужем каких-то год с небольшим, она уже успела наставить ему рога. Новый человек не на шутку заинтересовал ее, она просто не давала ему проходу, она стала откровенно домогаться его. А когда Джубал отверг все ее притязания, оговорила его перед мужем. Пинки тоже не остался в стороне, в том, что произошло он был виноват первый. А произошло то, что поверив наговорам Хоген буквально взбесился. Что можно объяснить человеку, когда он в таком состоянии? Вне себя от ярости он набросился на Джубала и погиб. Защищаясь, Джубал убил своего самого лучшего друга, человека, который поверил в него, в бродягу... А потом была облава. На Джубала... Конечно, в конце концов выяснились настоящие виновники произошедшей трагедии - Мей перед смертью успела все рассказать - тем не менее, неприятный осадок остался. Это фильм о том, как невозможно порой противостоять человеческой подлости, наглости и двуличию. Лишь чудо может спасти облитого грязью. И это печально. Впрочем, нашлись люди, которые помогли Джубалу, к сожалению, они были в меньшинстве...



Страна: США, Columbia Pictures Corporation
Продолжительность: 01:41:29
Перевод: Авторский одноголосый (С.Кузнецов)
Субтитры: Английские
Дата релиза: 16.12.2013

Файл
Кодек: H.264
Качество: BDRip (AVC)
Видео: MPEG-4 AVC, 2418 Кбит/с, 1024x402
Звук: Русский, английский (AC3, 2 ch, 192 Кбит/с)
Общее
Уникальный идентификатор : 220240728911259469138664255393613547289 (0xA5B0D24C6854EB6A8ECE0B896A810719)
Полное имя : E:2Dzhubal.1956.x264.BDRip.(AVC).ExKinoRay.mkv
Формат : Matroska
Размер файла : 1,99 Гбайт
Продолжительность : 1 ч. 41 м.
Общий поток : 2804 Кбит/сек
Название фильма : Dzhubal.1956.x264.BDRip.(AVC).ExKinoRay
Дата кодирования : UTC 2013-12-16 06:41:22
Программа кодирования : mkvmerge v4.0.0 ('The Stars were mine') сборка от Jun 6 2010 16:18:42
Библиотека кодирования : libebml v1.0.0 + libmatroska v1.0.0

Видео
Идентификатор : 1
Формат : AVC
Формат/Информация : Advanced Video Codec
Профиль формата : High@L4.1
Параметр CABAC формата : Да
Параметр ReFrames формата : 8 кадров
Идентификатор кодека : V_MPEG4/ISO/AVC
Продолжительность : 1 ч. 41 м.
Битрейт : 2418 Кбит/сек
Ширина : 1024 пикс.
Высота : 402 пикс.
Соотношение сторон : 2,547
Частота кадров : 23,976 кадр/сек
Цветовое пространство : YUV
Подвыборка цветности : 4:2:0
Битовая глубина : 8 бит
Тип развёртки : Прогрессивная
Бит/(Пиксели*Кадры) : 0.245
Размер потока : 1,68 Гбайт (84%)
Заголовок : Rip by Enigma-Vladislav71
Библиотека кодирования : x264 core 125 r2208 d9d2288
Настройки программы : cabac=1 / ref=8 / deblock=1:-2:-2 / analyse=0x3:0x133 / me=umh / subme=11 / psy=1 / psy_rd=1.00:0.00 / mixed_ref=1 / me_range=48 / chroma_me=1 / trellis=2 / 8x8dct=1 / cqm=0 / deadzone=21,11 / fast_pskip=0 / chroma_qp_offset=-2 / threads=3 / lookahead_threads=1 / sliced_threads=0 / nr=0 / decimate=0 / interlaced=0 / bluray_compat=0 / constrained_intra=0 / bframes=8 / b_pyramid=2 / b_adapt=2 / b_bias=0 / direct=3 / weightb=1 / open_gop=0 / weightp=2 / keyint=240 / keyint_min=23 / scenecut=40 / intra_refresh=0 / rc=2pass / mbtree=0 / bitrate=2418 / ratetol=1.0 / qcomp=0.60 / qpmin=10 / qpmax=51 / qpstep=4 / cplxblur=20.0 / qblur=0.5 / ip_ratio=1.40 / pb_ratio=1.30 / aq=1:1.00
Язык : English

Аудио #1
Идентификатор : 2
Формат : AC-3
Формат/Информация : Audio Coding 3
Расширение режима : CM (complete main)
Идентификатор кодека : A_AC3
Продолжительность : 1 ч. 41 м.
Вид битрейта : Постоянный
Битрейт : 192 Кбит/сек
Каналы : 2 канала
Расположение каналов : Front: L R
Частота : 48,0 КГц
Битовая глубина : 16 бит
Метод сжатия : С потерями
Размер потока : 139 Мбайт (7%)
Язык : Russian

Аудио #2
Идентификатор : 3
Формат : AC-3
Формат/Информация : Audio Coding 3
Расширение режима : CM (complete main)
Идентификатор кодека : A_AC3
Продолжительность : 1 ч. 41 м.
Вид битрейта : Постоянный
Битрейт : 192 Кбит/сек
Каналы : 2 канала
Расположение каналов : Front: L R
Частота : 48,0 КГц
Битовая глубина : 16 бит
Метод сжатия : С потерями
Размер потока : 139 Мбайт (7%)
Язык : English

Текст
Идентификатор : 4
Формат : UTF-8
Идентификатор кодека : S_TEXT/UTF8
Идентификатор кодека/Информация : UTF-8 Plain Text
Язык : English
Релиз от:

Авторы релиза:



Скачать Джубал.Jubal.(Дэлмер.Дэйвс).[1956.вестерн.драма.BDRip-AVC].[AVO]+[Sub].torrent без регистрации
Золото ЗОЛОТАЯ РАЗДАЧА! СКАЧАННОЕ НЕ ЗАСЧИТЫВАЕТСЯ! Золото
Дата: Зарегистрирован   [ Тип: внутренний ] Как тут cкачать?
MAGNET ссылка
MAGNET ссылка


Скачать .torrent

20 KB

Статус: проверено DHT
Скачан: торрент - 116 раз, раздача полностью - 1 раз
Размер: 1,99 GB
Оценка:  - (Голосов: 0)
Поблагодарили: 1
Поделиться ссылкой на эту раздачу с друзьями:
В контактеFacebookОдноклассникиTwitterLivejournalМой МирLiveinternet
 

 
Показать сообщения:    


Вы не можете начинать темы
Вы не можете отвечать на сообщения
Вы не можете редактировать свои сообщения
Вы не можете удалять свои сообщения
Вы не можете голосовать в опросах
Вы не можете прикреплять файлы к сообщениям
Вы можете скачивать файлы