Loading...
Error

Скачать Код убийства / The Bletchley Circle (сезон 01) (Энди де Эммони, Джэми Пэйн) [2012, триллер, Blu-ray] [1080i] [MVO] торрент без регистрации

 
Статистика раздачи
Размер:  43,83 GB   |    Скачан:  104 раза
Сидов:  1  [  0 KB/s  ]  
 
Автор Сообщение

МихаНЕзатор

[] 

Информация о фильме
Название: Код убийства
Оригинальное название: The Bletchley Circle
Год выхода: 2012
Жанр: триллер

Режиссер: Энди де Эммони / Andy DeEmmony, Джэми Пэйн / Jamie Payne

В ролях: Анна Максвелл Мартин (Susan), Рэйчел Стирлинг (Millie), Джули Грэм (Jean), Софи Рандл (Lucy), Эд Бирч (Harry), Марк Декстер (Timothy), Майкл Гулд (Deputy Commissioner Wainwright), Эллиот Керли (Sam), Жослин Макнаб (Claire), Стивен Робертсон (Crowley), Киран Бью (Clerk on Train), Мэттью Каллам (Constable Barry)

О фильме: Четыре женщины во время войны служившие дешифровщицами в Блетчли-парке - главном шифровальном подразделении Великобритании, объединяются, чтобы используя свои уникальные навыки поймать серийного убийцу.



Страна: Великобритания
Продолжительность: 3 x ~ 00:45:00
Перевод: Профессиональный (многоголосый, закадровый) Agatha Studdio

Файл
Кодек: x264
Качество: Blu-ray 1080i
Видео: ~ 34999 kbps / 1080i / 29,970 fps / 16:9 / High Profile 4.1
Звук:
Audio: Russian / LPCM / 2.0 / 48 kHz / 1536 kbps / 16-bit
Audio: English / LPCM / 2.0 / 48 kHz / 1536 kbps / 16-bit
Субтитры: английские

АНОНСЫ ПОПУЛЯРНЫХ РАЗДАЧ


Релиз от:
Диск пересобран из оригинального Blu-ray.
Исходный диск приобретен в рамках сервиса от HDCLUB - "Копилка: Помоги с Blu-ray" (Сериалы). Спонсор: lawyers.
Русская дорожка сделана с чистых голосов.

Disc Title: BLETCHLEY_CIRCLE_BLU-RAY_HDCLUB
Disc Size: 47 059 250 040 bytes
Protection: AACS
BD-Java: Yes
BDInfo: 0.5.8

Notes:

BDINFO HOME:
Cinema Squid
http://www.cinemasquid.com/blu-ray/tools/bdinfo

INCLUDES FORUMS REPORT FOR:
AVS Forum Blu-ray Audio and Video Specifications Thread
http://www.avsforum.com/avs-vb/showthread.php?t=1155731

********************
PLAYLIST: 00002.MPLS
********************


Код:
Total Video
Title Codec Length Movie Size Disc Size Bitrate Bitrate Main Audio Track Secondary Audio Track
----- ------ ------- -------------- -------------- ------- ------- ------------------ ---------------------
00002.MPLS AVC 0:44:55 13 602 656 256 47 059 250 040 40,37 35,00 LPCM 2.0 1536Kbps (48kHz/16-bit)
Код:
DISC INFO:

Disc Title: BLETCHLEY_CIRCLE_BLU-RAY_HDCLUB
Disc Size: 47 059 250 040 bytes
Protection: AACS
BD-Java: Yes
BDInfo: 0.5.8

PLAYLIST REPORT:

Name: 00002.MPLS
Length: 0:44:55.726 (h:m:s.ms)
Size: 13 602 656 256 bytes
Total Bitrate: 40,37 Mbps

VIDEO:

Codec Bitrate Deion
----- ------- -----------
MPEG-4 AVC Video 34999 kbps 1080i / 29,970 fps / 16:9 / High Profile 4.1

AUDIO:

Codec Language Bitrate Deion
----- -------- ------- -----------
LPCM Audio Russian 1536 kbps 2.0 / 48 kHz / 1536 kbps / 16-bit
LPCM Audio English 1536 kbps 2.0 / 48 kHz / 1536 kbps / 16-bit

SUBTITLES:

Codec Language Bitrate Deion
----- -------- ------- -----------
Presentation Graphics English 59,581 kbps

FILES:

Name Time In Length Size Total Bitrate
---- ------- ------ ---- -------------
00002.M2TS 0:00:00.000 0:44:55.726 13 602 656 256 40 368

CHAPTERS:

Number Time In Length Avg Video Rate Max 1-Sec Rate Max 1-Sec Time Max 5-Sec Rate Max 5-Sec Time Max 10Sec Rate Max 10Sec Time Avg Frame Size Max Frame Size Max Frame Time
------ ------- ------ -------------- -------------- -------------- -------------- -------------- -------------- -------------- -------------- -------------- --------------
1 0:00:00.000 0:05:31.998 35 008 kbps 47 505 kbps 00:01:55.448 38 289 kbps 00:01:42.569 36 637 kbps 00:01:38.698 145 999 bytes 416 010 bytes 00:02:11.931
2 0:05:31.998 0:09:01.207 35 019 kbps 51 226 kbps 00:11:48.107 38 440 kbps 00:08:30.776 36 693 kbps 00:07:00.653 146 060 bytes 495 316 bytes 00:11:48.174
3 0:14:33.205 0:05:48.815 34 987 kbps 53 692 kbps 00:16:23.148 38 706 kbps 00:16:34.793 36 669 kbps 00:15:07.039 145 926 bytes 715 105 bytes 00:16:23.615
4 0:20:22.020 0:08:16.496 35 011 kbps 54 068 kbps 00:22:36.922 38 814 kbps 00:22:32.918 36 907 kbps 00:22:27.913 146 027 bytes 710 011 bytes 00:28:37.982
5 0:28:38.516 0:11:36.495 34 998 kbps 48 837 kbps 00:34:43.414 38 209 kbps 00:34:40.378 36 725 kbps 00:37:11.729 145 972 bytes 454 088 bytes 00:35:49.847
6 0:40:15.012 0:03:54.500 34 939 kbps 49 966 kbps 00:40:29.260 38 259 kbps 00:43:45.255 36 629 kbps 00:43:40.250 145 725 bytes 393 890 bytes 00:43:47.658
7 0:44:09.513 0:00:46.212 34 975 kbps 35 000 kbps 00:44:54.692 35 000 kbps 00:44:50.688 35 000 kbps 00:44:45.683 145 981 bytes 145 985 bytes 00:44:55.693

STREAM DIAGNOSTICS:

File PID Type Codec Language Seconds Bitrate Bytes Packets
---- --- ---- ----- -------- -------------- -------------- ------------- -----
00002.M2TS 4113 (0x1011) 0x1B AVC 2695,593 35 001 11 793 535 711 64 174 240
00002.M2TS 4352 (0x1100) 0x80 LPCM rus (Russian) 2695,593 1 542 519 736 744 3 234 876
00002.M2TS 4353 (0x1101) 0x80 LPCM eng (English) 2695,593 1 542 519 736 744 3 234 876
00002.M2TS 4608 (0x1200) 0x90 PGS eng (English) 2695,593 60 20 076 920 112 849


QUICK SUMMARY:

Disc Title: BLETCHLEY_CIRCLE_BLU-RAY_HDCLUB
Disc Size: 47 059 250 040 bytes
Protection: AACS
BD-Java: Yes
Playlist: 00002.MPLS
Size: 13 602 656 256 bytes
Length: 0:44:55.726
Total Bitrate: 40,37 Mbps
Video: MPEG-4 AVC Video / 34999 kbps / 1080i / 29,970 fps / 16:9 / High Profile 4.1
Audio: Russian / LPCM Audio / 2.0 / 48 kHz / 1536 kbps / 16-bit
Audio: English / LPCM Audio / 2.0 / 48 kHz / 1536 kbps / 16-bit
Subtitle: English / 59,581 kbps

********************
PLAYLIST: 01002.MPLS
********************


Код:
Total Video
Title Codec Length Movie Size Disc Size Bitrate Bitrate Main Audio Track Secondary Audio Track
----- ------ ------- -------------- -------------- ------- ------- ------------------ ---------------------
01002.MPLS AVC 0:44:55 13 602 656 256 47 059 250 040 40,37 35,00 LPCM 2.0 1536Kbps (48kHz/16-bit)
Код:
DISC INFO:

Disc Title: BLETCHLEY_CIRCLE_BLU-RAY_HDCLUB
Disc Size: 47 059 250 040 bytes
Protection: AACS
BD-Java: Yes
BDInfo: 0.5.8

PLAYLIST REPORT:

Name: 01002.MPLS
Length: 0:44:55.726 (h:m:s.ms)
Size: 13 602 656 256 bytes
Total Bitrate: 40,37 Mbps

VIDEO:

Codec Bitrate Deion
----- ------- -----------
MPEG-4 AVC Video 34999 kbps 1080i / 29,970 fps / 16:9 / High Profile 4.1

AUDIO:

Codec Language Bitrate Deion
----- -------- ------- -----------
LPCM Audio Russian 1536 kbps 2.0 / 48 kHz / 1536 kbps / 16-bit
LPCM Audio English 1536 kbps 2.0 / 48 kHz / 1536 kbps / 16-bit

SUBTITLES:

Codec Language Bitrate Deion
----- -------- ------- -----------
Presentation Graphics English 59,581 kbps

FILES:

Name Time In Length Size Total Bitrate
---- ------- ------ ---- -------------
00002.M2TS 0:00:00.000 0:44:55.726 13 602 656 256 40 368

CHAPTERS:

Number Time In Length Avg Video Rate Max 1-Sec Rate Max 1-Sec Time Max 5-Sec Rate Max 5-Sec Time Max 10Sec Rate Max 10Sec Time Avg Frame Size Max Frame Size Max Frame Time
------ ------- ------ -------------- -------------- -------------- -------------- -------------- -------------- -------------- -------------- -------------- --------------
1 0:00:00.000 0:05:31.998 35 008 kbps 47 505 kbps 00:01:55.448 38 289 kbps 00:01:42.569 36 637 kbps 00:01:38.698 145 999 bytes 416 010 bytes 00:02:11.931
2 0:05:31.998 0:09:01.207 35 019 kbps 51 226 kbps 00:11:48.107 38 440 kbps 00:08:30.776 36 693 kbps 00:07:00.653 146 060 bytes 495 316 bytes 00:11:48.174
3 0:14:33.205 0:05:48.815 34 987 kbps 53 692 kbps 00:16:23.148 38 706 kbps 00:16:34.793 36 669 kbps 00:15:07.039 145 926 bytes 715 105 bytes 00:16:23.615
4 0:20:22.020 0:08:16.496 35 011 kbps 54 068 kbps 00:22:36.922 38 814 kbps 00:22:32.918 36 907 kbps 00:22:27.913 146 027 bytes 710 011 bytes 00:28:37.982
5 0:28:38.516 0:11:36.495 34 998 kbps 48 837 kbps 00:34:43.414 38 209 kbps 00:34:40.378 36 725 kbps 00:37:11.729 145 972 bytes 454 088 bytes 00:35:49.847
6 0:40:15.012 0:03:54.500 34 939 kbps 49 966 kbps 00:40:29.260 38 259 kbps 00:43:45.255 36 629 kbps 00:43:40.250 145 725 bytes 393 890 bytes 00:43:47.658
7 0:44:09.513 0:00:46.212 34 975 kbps 35 000 kbps 00:44:54.692 35 000 kbps 00:44:50.688 35 000 kbps 00:44:45.683 145 981 bytes 145 985 bytes 00:44:55.693

STREAM DIAGNOSTICS:

File PID Type Codec Language Seconds Bitrate Bytes Packets
---- --- ---- ----- -------- -------------- -------------- ------------- -----
00002.M2TS 4113 (0x1011) 0x1B AVC 2695,593 35 001 11 793 535 711 64 174 240
00002.M2TS 4352 (0x1100) 0x80 LPCM rus (Russian) 2695,593 1 542 519 736 744 3 234 876
00002.M2TS 4353 (0x1101) 0x80 LPCM eng (English) 2695,593 1 542 519 736 744 3 234 876
00002.M2TS 4608 (0x1200) 0x90 PGS eng (English) 2695,593 60 20 076 920 112 849


QUICK SUMMARY:

Disc Title: BLETCHLEY_CIRCLE_BLU-RAY_HDCLUB
Disc Size: 47 059 250 040 bytes
Protection: AACS
BD-Java: Yes
Playlist: 01002.MPLS
Size: 13 602 656 256 bytes
Length: 0:44:55.726
Total Bitrate: 40,37 Mbps
Video: MPEG-4 AVC Video / 34999 kbps / 1080i / 29,970 fps / 16:9 / High Profile 4.1
Audio: Russian / LPCM Audio / 2.0 / 48 kHz / 1536 kbps / 16-bit
Audio: English / LPCM Audio / 2.0 / 48 kHz / 1536 kbps / 16-bit
Subtitle: English / 59,581 kbps

********************
PLAYLIST: 00004.MPLS
********************


Код:
Total Video
Title Codec Length Movie Size Disc Size Bitrate Bitrate Main Audio Track Secondary Audio Track
----- ------ ------- -------------- -------------- ------- ------- ------------------ ---------------------
00004.MPLS AVC 0:44:26 13 450 641 408 47 059 250 040 40,35 35,00 LPCM 2.0 1536Kbps (48kHz/16-bit)
Код:
DISC INFO:

Disc Title: BLETCHLEY_CIRCLE_BLU-RAY_HDCLUB
Disc Size: 47 059 250 040 bytes
Protection: AACS
BD-Java: Yes
BDInfo: 0.5.8

PLAYLIST REPORT:

Name: 00004.MPLS
Length: 0:44:26.597 (h:m:s.ms)
Size: 13 450 641 408 bytes
Total Bitrate: 40,35 Mbps

VIDEO:

Codec Bitrate Deion
----- ------- -----------
MPEG-4 AVC Video 34999 kbps 1080i / 29,970 fps / 16:9 / High Profile 4.1

AUDIO:

Codec Language Bitrate Deion
----- -------- ------- -----------
LPCM Audio Russian 1536 kbps 2.0 / 48 kHz / 1536 kbps / 16-bit
LPCM Audio English 1536 kbps 2.0 / 48 kHz / 1536 kbps / 16-bit

SUBTITLES:

Codec Language Bitrate Deion
----- -------- ------- -----------
Presentation Graphics English 48,183 kbps

FILES:

Name Time In Length Size Total Bitrate
---- ------- ------ ---- -------------
00004.M2TS 0:00:00.000 0:44:26.597 13 450 641 408 40 353

CHAPTERS:

Number Time In Length Avg Video Rate Max 1-Sec Rate Max 1-Sec Time Max 5-Sec Rate Max 5-Sec Time Max 10Sec Rate Max 10Sec Time Avg Frame Size Max Frame Size Max Frame Time
------ ------- ------ -------------- -------------- -------------- -------------- -------------- -------------- -------------- -------------- -------------- --------------
1 0:00:00.000 0:13:32.011 35 012 kbps 52 209 kbps 00:11:11.570 38 626 kbps 00:10:04.770 36 787 kbps 00:13:04.083 146 022 bytes 462 076 bytes 00:11:11.771
2 0:13:32.011 0:03:37.951 34 951 kbps 52 946 kbps 00:15:21.854 38 697 kbps 00:15:10.476 36 547 kbps 00:14:52.024 145 773 bytes 571 416 bytes 00:15:22.254
3 0:17:09.962 0:09:39.045 35 020 kbps 48 204 kbps 00:24:02.207 38 296 kbps 00:23:39.951 36 636 kbps 00:22:29.614 146 063 bytes 446 185 bytes 00:22:48.133
4 0:26:49.007 0:06:38.998 35 010 kbps 49 972 kbps 00:33:26.804 38 001 kbps 00:31:37.462 36 700 kbps 00:31:36.995 146 022 bytes 538 171 bytes 00:27:14.733
5 0:33:28.006 0:10:13.012 34 975 kbps 52 794 kbps 00:43:09.553 38 580 kbps 00:43:08.352 36 794 kbps 00:41:27.051 145 873 bytes 509 560 bytes 00:43:03.447
6 0:43:41.018 0:00:45.578 34 975 kbps 35 000 kbps 00:44:25.562 35 000 kbps 00:44:21.558 35 000 kbps 00:44:16.553 145 981 bytes 145 986 bytes 00:44:26.563

STREAM DIAGNOSTICS:

File PID Type Codec Language Seconds Bitrate Bytes Packets
---- --- ---- ----- -------- -------------- -------------- ------------- -----
00004.M2TS 4113 (0x1011) 0x1B AVC 2666,531 35 000 11 666 094 734 63 475 817
00004.M2TS 4352 (0x1100) 0x80 LPCM rus (Russian) 2666,531 1 542 514 120 480 3 199 920
00004.M2TS 4353 (0x1101) 0x80 LPCM eng (English) 2666,531 1 542 514 120 480 3 199 920
00004.M2TS 4608 (0x1200) 0x90 PGS eng (English) 2666,531 48 16 060 628 90 427


QUICK SUMMARY:

Disc Title: BLETCHLEY_CIRCLE_BLU-RAY_HDCLUB
Disc Size: 47 059 250 040 bytes
Protection: AACS
BD-Java: Yes
Playlist: 00004.MPLS
Size: 13 450 641 408 bytes
Length: 0:44:26.597
Total Bitrate: 40,35 Mbps
Video: MPEG-4 AVC Video / 34999 kbps / 1080i / 29,970 fps / 16:9 / High Profile 4.1
Audio: Russian / LPCM Audio / 2.0 / 48 kHz / 1536 kbps / 16-bit
Audio: English / LPCM Audio / 2.0 / 48 kHz / 1536 kbps / 16-bit
Subtitle: English / 48,183 kbps

********************
PLAYLIST: 01004.MPLS
********************


Код:
Total Video
Title Codec Length Movie Size Disc Size Bitrate Bitrate Main Audio Track Secondary Audio Track
----- ------ ------- -------------- -------------- ------- ------- ------------------ ---------------------
01004.MPLS AVC 0:44:26 13 450 641 408 47 059 250 040 40,35 35,00 LPCM 2.0 1536Kbps (48kHz/16-bit)
Код:
DISC INFO:

Disc Title: BLETCHLEY_CIRCLE_BLU-RAY_HDCLUB
Disc Size: 47 059 250 040 bytes
Protection: AACS
BD-Java: Yes
BDInfo: 0.5.8

PLAYLIST REPORT:

Name: 01004.MPLS
Length: 0:44:26.597 (h:m:s.ms)
Size: 13 450 641 408 bytes
Total Bitrate: 40,35 Mbps

VIDEO:

Codec Bitrate Deion
----- ------- -----------
MPEG-4 AVC Video 34999 kbps 1080i / 29,970 fps / 16:9 / High Profile 4.1

AUDIO:

Codec Language Bitrate Deion
----- -------- ------- -----------
LPCM Audio Russian 1536 kbps 2.0 / 48 kHz / 1536 kbps / 16-bit
LPCM Audio English 1536 kbps 2.0 / 48 kHz / 1536 kbps / 16-bit

SUBTITLES:

Codec Language Bitrate Deion
----- -------- ------- -----------
Presentation Graphics English 48,183 kbps

FILES:

Name Time In Length Size Total Bitrate
---- ------- ------ ---- -------------
00004.M2TS 0:00:00.000 0:44:26.597 13 450 641 408 40 353

CHAPTERS:

Number Time In Length Avg Video Rate Max 1-Sec Rate Max 1-Sec Time Max 5-Sec Rate Max 5-Sec Time Max 10Sec Rate Max 10Sec Time Avg Frame Size Max Frame Size Max Frame Time
------ ------- ------ -------------- -------------- -------------- -------------- -------------- -------------- -------------- -------------- -------------- --------------
1 0:00:00.000 0:13:32.011 35 012 kbps 52 209 kbps 00:11:11.570 38 626 kbps 00:10:04.770 36 787 kbps 00:13:04.083 146 022 bytes 462 076 bytes 00:11:11.771
2 0:13:32.011 0:03:37.951 34 951 kbps 52 946 kbps 00:15:21.854 38 697 kbps 00:15:10.476 36 547 kbps 00:14:52.024 145 773 bytes 571 416 bytes 00:15:22.254
3 0:17:09.962 0:09:39.045 35 020 kbps 48 204 kbps 00:24:02.207 38 296 kbps 00:23:39.951 36 636 kbps 00:22:29.614 146 063 bytes 446 185 bytes 00:22:48.133
4 0:26:49.007 0:06:38.998 35 010 kbps 49 972 kbps 00:33:26.804 38 001 kbps 00:31:37.462 36 700 kbps 00:31:36.995 146 022 bytes 538 171 bytes 00:27:14.733
5 0:33:28.006 0:10:13.012 34 975 kbps 52 794 kbps 00:43:09.553 38 580 kbps 00:43:08.352 36 794 kbps 00:41:27.051 145 873 bytes 509 560 bytes 00:43:03.447
6 0:43:41.018 0:00:45.578 34 975 kbps 35 000 kbps 00:44:25.562 35 000 kbps 00:44:21.558 35 000 kbps 00:44:16.553 145 981 bytes 145 986 bytes 00:44:26.563

STREAM DIAGNOSTICS:

File PID Type Codec Language Seconds Bitrate Bytes Packets
---- --- ---- ----- -------- -------------- -------------- ------------- -----
00004.M2TS 4113 (0x1011) 0x1B AVC 2666,531 35 000 11 666 094 734 63 475 817
00004.M2TS 4352 (0x1100) 0x80 LPCM rus (Russian) 2666,531 1 542 514 120 480 3 199 920
00004.M2TS 4353 (0x1101) 0x80 LPCM eng (English) 2666,531 1 542 514 120 480 3 199 920
00004.M2TS 4608 (0x1200) 0x90 PGS eng (English) 2666,531 48 16 060 628 90 427


QUICK SUMMARY:

Disc Title: BLETCHLEY_CIRCLE_BLU-RAY_HDCLUB
Disc Size: 47 059 250 040 bytes
Protection: AACS
BD-Java: Yes
Playlist: 01004.MPLS
Size: 13 450 641 408 bytes
Length: 0:44:26.597
Total Bitrate: 40,35 Mbps
Video: MPEG-4 AVC Video / 34999 kbps / 1080i / 29,970 fps / 16:9 / High Profile 4.1
Audio: Russian / LPCM Audio / 2.0 / 48 kHz / 1536 kbps / 16-bit
Audio: English / LPCM Audio / 2.0 / 48 kHz / 1536 kbps / 16-bit
Subtitle: English / 48,183 kbps

********************
PLAYLIST: 00003.MPLS
********************


Код:
Total Video
Title Codec Length Movie Size Disc Size Bitrate Bitrate Main Audio Track Secondary Audio Track
----- ------ ------- -------------- -------------- ------- ------- ------------------ ---------------------
00003.MPLS AVC 0:44:01 13 332 731 904 47 059 250 040 40,37 35,00 LPCM 2.0 1536Kbps (48kHz/16-bit)
Код:
DISC INFO:

Disc Title: BLETCHLEY_CIRCLE_BLU-RAY_HDCLUB
Disc Size: 47 059 250 040 bytes
Protection: AACS
BD-Java: Yes
BDInfo: 0.5.8

PLAYLIST REPORT:

Name: 00003.MPLS
Length: 0:44:01.839 (h:m:s.ms)
Size: 13 332 731 904 bytes
Total Bitrate: 40,37 Mbps

VIDEO:

Codec Bitrate Deion
----- ------- -----------
MPEG-4 AVC Video 34999 kbps 1080i / 29,970 fps / 16:9 / High Profile 4.1

AUDIO:

Codec Language Bitrate Deion
----- -------- ------- -----------
LPCM Audio Russian 1536 kbps 2.0 / 48 kHz / 1536 kbps / 16-bit
LPCM Audio English 1536 kbps 2.0 / 48 kHz / 1536 kbps / 16-bit

SUBTITLES:

Codec Language Bitrate Deion
----- -------- ------- -----------
Presentation Graphics English 68,661 kbps

FILES:

Name Time In Length Size Total Bitrate
---- ------- ------ ---- -------------
00003.M2TS 0:00:00.000 0:44:01.839 13 332 731 904 40 374

CHAPTERS:

Number Time In Length Avg Video Rate Max 1-Sec Rate Max 1-Sec Time Max 5-Sec Rate Max 5-Sec Time Max 10Sec Rate Max 10Sec Time Avg Frame Size Max Frame Size Max Frame Time
------ ------- ------ -------------- -------------- -------------- -------------- -------------- -------------- -------------- -------------- -------------- --------------
1 0:00:00.000 0:10:59.992 35 001 kbps 55 513 kbps 00:00:00.233 38 392 kbps 00:00:24.057 36 798 kbps 00:00:20.020 145 975 bytes 671 676 bytes 00:00:01.134
2 0:10:59.992 0:15:18.984 34 999 kbps 52 620 kbps 00:16:40.733 38 603 kbps 00:16:39.531 36 833 kbps 00:18:00.112 145 974 bytes 467 739 bytes 00:11:11.504
3 0:26:18.977 0:12:07.993 34 999 kbps 47 409 kbps 00:30:42.740 38 359 kbps 00:29:32.170 36 733 kbps 00:29:31.169 145 976 bytes 403 123 bytes 00:29:36.174
4 0:38:26.971 0:04:49.022 35 000 kbps 40 208 kbps 00:41:42.466 36 337 kbps 00:41:39.063 35 686 kbps 00:41:34.058 145 981 bytes 363 230 bytes 00:41:42.666
5 0:43:15.993 0:00:45.845 34 975 kbps 35 000 kbps 00:44:00.804 35 000 kbps 00:43:56.800 35 000 kbps 00:43:51.795 145 981 bytes 145 986 bytes 00:44:01.805

STREAM DIAGNOSTICS:

File PID Type Codec Language Seconds Bitrate Bytes Packets
---- --- ---- ----- -------- -------------- -------------- ------------- -----
00003.M2TS 4113 (0x1011) 0x1B AVC 2641,772 35 000 11 557 777 202 62 885 153
00003.M2TS 4352 (0x1100) 0x80 LPCM rus (Russian) 2641,772 1 542 509 346 752 3 170 208
00003.M2TS 4353 (0x1101) 0x80 LPCM eng (English) 2641,772 1 542 509 346 752 3 170 208
00003.M2TS 4608 (0x1200) 0x90 PGS eng (English) 2641,772 69 22 673 831 127 222


QUICK SUMMARY:

Disc Title: BLETCHLEY_CIRCLE_BLU-RAY_HDCLUB
Disc Size: 47 059 250 040 bytes
Protection: AACS
BD-Java: Yes
Playlist: 00003.MPLS
Size: 13 332 731 904 bytes
Length: 0:44:01.839
Total Bitrate: 40,37 Mbps
Video: MPEG-4 AVC Video / 34999 kbps / 1080i / 29,970 fps / 16:9 / High Profile 4.1
Audio: Russian / LPCM Audio / 2.0 / 48 kHz / 1536 kbps / 16-bit
Audio: English / LPCM Audio / 2.0 / 48 kHz / 1536 kbps / 16-bit
Subtitle: English / 68,661 kbps

********************
PLAYLIST: 01003.MPLS
********************


Код:
Total Video
Title Codec Length Movie Size Disc Size Bitrate Bitrate Main Audio Track Secondary Audio Track
----- ------ ------- -------------- -------------- ------- ------- ------------------ ---------------------
01003.MPLS AVC 0:44:01 13 332 731 904 47 059 250 040 40,37 35,00 LPCM 2.0 1536Kbps (48kHz/16-bit)
Код:
DISC INFO:

Disc Title: BLETCHLEY_CIRCLE_BLU-RAY_HDCLUB
Disc Size: 47 059 250 040 bytes
Protection: AACS
BD-Java: Yes
BDInfo: 0.5.8

PLAYLIST REPORT:

Name: 01003.MPLS
Length: 0:44:01.839 (h:m:s.ms)
Size: 13 332 731 904 bytes
Total Bitrate: 40,37 Mbps

VIDEO:

Codec Bitrate Deion
----- ------- -----------
MPEG-4 AVC Video 34999 kbps 1080i / 29,970 fps / 16:9 / High Profile 4.1

AUDIO:

Codec Language Bitrate Deion
----- -------- ------- -----------
LPCM Audio Russian 1536 kbps 2.0 / 48 kHz / 1536 kbps / 16-bit
LPCM Audio English 1536 kbps 2.0 / 48 kHz / 1536 kbps / 16-bit

SUBTITLES:

Codec Language Bitrate Deion
----- -------- ------- -----------
Presentation Graphics English 68,661 kbps

FILES:

Name Time In Length Size Total Bitrate
---- ------- ------ ---- -------------
00003.M2TS 0:00:00.000 0:44:01.839 13 332 731 904 40 374

CHAPTERS:

Number Time In Length Avg Video Rate Max 1-Sec Rate Max 1-Sec Time Max 5-Sec Rate Max 5-Sec Time Max 10Sec Rate Max 10Sec Time Avg Frame Size Max Frame Size Max Frame Time
------ ------- ------ -------------- -------------- -------------- -------------- -------------- -------------- -------------- -------------- -------------- --------------
1 0:00:00.000 0:10:59.992 35 001 kbps 55 513 kbps 00:00:00.233 38 392 kbps 00:00:24.057 36 798 kbps 00:00:20.020 145 975 bytes 671 676 bytes 00:00:01.134
2 0:10:59.992 0:15:18.984 34 999 kbps 52 620 kbps 00:16:40.733 38 603 kbps 00:16:39.531 36 833 kbps 00:18:00.112 145 974 bytes 467 739 bytes 00:11:11.504
3 0:26:18.977 0:12:07.993 34 999 kbps 47 409 kbps 00:30:42.740 38 359 kbps 00:29:32.170 36 733 kbps 00:29:31.169 145 976 bytes 403 123 bytes 00:29:36.174
4 0:38:26.971 0:04:49.022 35 000 kbps 40 208 kbps 00:41:42.466 36 337 kbps 00:41:39.063 35 686 kbps 00:41:34.058 145 981 bytes 363 230 bytes 00:41:42.666
5 0:43:15.993 0:00:45.845 34 975 kbps 35 000 kbps 00:44:00.804 35 000 kbps 00:43:56.800 35 000 kbps 00:43:51.795 145 981 bytes 145 986 bytes 00:44:01.805

STREAM DIAGNOSTICS:

File PID Type Codec Language Seconds Bitrate Bytes Packets
---- --- ---- ----- -------- -------------- -------------- ------------- -----
00003.M2TS 4113 (0x1011) 0x1B AVC 2641,772 35 000 11 557 777 202 62 885 153
00003.M2TS 4352 (0x1100) 0x80 LPCM rus (Russian) 2641,772 1 542 509 346 752 3 170 208
00003.M2TS 4353 (0x1101) 0x80 LPCM eng (English) 2641,772 1 542 509 346 752 3 170 208
00003.M2TS 4608 (0x1200) 0x90 PGS eng (English) 2641,772 69 22 673 831 127 222


QUICK SUMMARY:

Disc Title: BLETCHLEY_CIRCLE_BLU-RAY_HDCLUB
Disc Size: 47 059 250 040 bytes
Protection: AACS
BD-Java: Yes
Playlist: 01003.MPLS
Size: 13 332 731 904 bytes
Length: 0:44:01.839
Total Bitrate: 40,37 Mbps
Video: MPEG-4 AVC Video / 34999 kbps / 1080i / 29,970 fps / 16:9 / High Profile 4.1
Audio: Russian / LPCM Audio / 2.0 / 48 kHz / 1536 kbps / 16-bit
Audio: English / LPCM Audio / 2.0 / 48 kHz / 1536 kbps / 16-bit
Subtitle: English / 68,661 kbps

********************
PLAYLIST: 00005.MPLS
********************


Код:
Total Video
Title Codec Length Movie Size Disc Size Bitrate Bitrate Main Audio Track Secondary Audio Track
----- ------ ------- -------------- -------------- ------- ------- ------------------ ---------------------
00005.MPLS AVC 0:28:10 6 365 147 136 47 059 250 040 30,12 27,00 LPCM 2.0 1536Kbps (48kHz/16-bit)
Код:
DISC INFO:

Disc Title: BLETCHLEY_CIRCLE_BLU-RAY_HDCLUB
Disc Size: 47 059 250 040 bytes
Protection: AACS
BD-Java: Yes
BDInfo: 0.5.8

PLAYLIST REPORT:

Name: 00005.MPLS
Length: 0:28:10.755 (h:m:s.ms)
Size: 6 365 147 136 bytes
Total Bitrate: 30,12 Mbps

VIDEO:

Codec Bitrate Deion
----- ------- -----------
MPEG-4 AVC Video 26999 kbps 1080i / 29,970 fps / 16:9 / High Profile 4.1

AUDIO:

Codec Language Bitrate Deion
----- -------- ------- -----------
LPCM Audio English 1536 kbps 2.0 / 48 kHz / 1536 kbps / 16-bit

FILES:

Name Time In Length Size Total Bitrate
---- ------- ------ ---- -------------
00005.M2TS 0:00:00.000 0:28:10.755 6 365 147 136 30 117

CHAPTERS:

Number Time In Length Avg Video Rate Max 1-Sec Rate Max 1-Sec Time Max 5-Sec Rate Max 5-Sec Time Max 10Sec Rate Max 10Sec Time Avg Frame Size Max Frame Size Max Frame Time
------ ------- ------ -------------- -------------- -------------- -------------- -------------- -------------- -------------- -------------- -------------- --------------
1 0:00:00.000 0:28:10.755 26 999 kbps 47 625 kbps 00:00:01.468 30 410 kbps 00:00:01.768 28 369 kbps 00:00:08.641 112 606 bytes 443 045 bytes 00:08:45.458

STREAM DIAGNOSTICS:

File PID Type Codec Language Seconds Bitrate Bytes Packets
---- --- ---- ----- -------- -------------- -------------- ------------- -----
00005.M2TS 4113 (0x1011) 0x1B AVC 1690,622 27 001 5 705 993 269 31 066 228
00005.M2TS 4352 (0x1100) 0x80 LPCM eng (English) 1690,622 1 543 325 978 528 2 028 912


QUICK SUMMARY:

Disc Title: BLETCHLEY_CIRCLE_BLU-RAY_HDCLUB
Disc Size: 47 059 250 040 bytes
Protection: AACS
BD-Java: Yes
Playlist: 00005.MPLS
Size: 6 365 147 136 bytes
Length: 0:28:10.755
Total Bitrate: 30,12 Mbps
Video: MPEG-4 AVC Video / 26999 kbps / 1080i / 29,970 fps / 16:9 / High Profile 4.1
Audio: English / LPCM Audio / 2.0 / 48 kHz / 1536 kbps / 16-bit

********************
PLAYLIST: 01005.MPLS
********************


Код:
Total Video
Title Codec Length Movie Size Disc Size Bitrate Bitrate Main Audio Track Secondary Audio Track
----- ------ ------- -------------- -------------- ------- ------- ------------------ ---------------------
01005.MPLS AVC 0:28:10 6 365 147 136 47 059 250 040 30,12 27,00 LPCM 2.0 1536Kbps (48kHz/16-bit)
Код:
DISC INFO:

Disc Title: BLETCHLEY_CIRCLE_BLU-RAY_HDCLUB
Disc Size: 47 059 250 040 bytes
Protection: AACS
BD-Java: Yes
BDInfo: 0.5.8

PLAYLIST REPORT:

Name: 01005.MPLS
Length: 0:28:10.755 (h:m:s.ms)
Size: 6 365 147 136 bytes
Total Bitrate: 30,12 Mbps

VIDEO:

Codec Bitrate Deion
----- ------- -----------
MPEG-4 AVC Video 26999 kbps 1080i / 29,970 fps / 16:9 / High Profile 4.1

AUDIO:

Codec Language Bitrate Deion
----- -------- ------- -----------
LPCM Audio English 1536 kbps 2.0 / 48 kHz / 1536 kbps / 16-bit

FILES:

Name Time In Length Size Total Bitrate
---- ------- ------ ---- -------------
00005.M2TS 0:00:00.000 0:28:10.755 6 365 147 136 30 117

CHAPTERS:

Number Time In Length Avg Video Rate Max 1-Sec Rate Max 1-Sec Time Max 5-Sec Rate Max 5-Sec Time Max 10Sec Rate Max 10Sec Time Avg Frame Size Max Frame Size Max Frame Time
------ ------- ------ -------------- -------------- -------------- -------------- -------------- -------------- -------------- -------------- -------------- --------------
1 0:00:00.000 0:28:10.755 26 999 kbps 47 625 kbps 00:00:01.468 30 410 kbps 00:00:01.768 28 369 kbps 00:00:08.641 112 606 bytes 443 045 bytes 00:08:45.458

STREAM DIAGNOSTICS:

File PID Type Codec Language Seconds Bitrate Bytes Packets
---- --- ---- ----- -------- -------------- -------------- ------------- -----
00005.M2TS 4113 (0x1011) 0x1B AVC 1690,622 27 001 5 705 993 269 31 066 228
00005.M2TS 4352 (0x1100) 0x80 LPCM eng (English) 1690,622 1 543 325 978 528 2 028 912


QUICK SUMMARY:

Disc Title: BLETCHLEY_CIRCLE_BLU-RAY_HDCLUB
Disc Size: 47 059 250 040 bytes
Protection: AACS
BD-Java: Yes
Playlist: 01005.MPLS
Size: 6 365 147 136 bytes
Length: 0:28:10.755
Total Bitrate: 30,12 Mbps
Video: MPEG-4 AVC Video / 26999 kbps / 1080i / 29,970 fps / 16:9 / High Profile 4.1
Audio: English / LPCM Audio / 2.0 / 48 kHz / 1536 kbps / 16-bit

********************
PLAYLIST: 00001.MPLS
********************


Код:
Total Video
Title Codec Length Movie Size Disc Size Bitrate Bitrate Main Audio Track Secondary Audio Track
----- ------ ------- -------------- -------------- ------- ------- ------------------ ---------------------
00001.MPLS MPEG-2 0:01:02 258 203 712 47 059 250 040 32,81 29,60 LPCM 2.0 1536Kbps (48kHz/16-bit)
Код:
DISC INFO:

Disc Title: BLETCHLEY_CIRCLE_BLU-RAY_HDCLUB
Disc Size: 47 059 250 040 bytes
Protection: AACS
BD-Java: Yes
BDInfo: 0.5.8

PLAYLIST REPORT:

Name: 00001.MPLS
Length: 0:01:02.962 (h:m:s.ms)
Size: 258 203 712 bytes
Total Bitrate: 32,81 Mbps

VIDEO:

Codec Bitrate Deion
----- ------- -----------
MPEG-2 Video 29598 kbps 1080i / 29,970 fps / 16:9

AUDIO:

Codec Language Bitrate Deion
----- -------- ------- -----------
LPCM Audio English 1536 kbps 2.0 / 48 kHz / 1536 kbps / 16-bit

FILES:

Name Time In Length Size Total Bitrate
---- ------- ------ ---- -------------
00001.M2TS 0:00:00.000 0:01:02.962 258 203 712 32 807

CHAPTERS:

Number Time In Length Avg Video Rate Max 1-Sec Rate Max 1-Sec Time Max 5-Sec Rate Max 5-Sec Time Max 10Sec Rate Max 10Sec Time Avg Frame Size Max Frame Size Max Frame Time
------ ------- ------ -------------- -------------- -------------- -------------- -------------- -------------- -------------- -------------- -------------- --------------
1 0:00:00.000 0:00:01.000 24 197 kbps 0 kbps 00:00:00.000 0 kbps 00:00:00.000 0 kbps 00:00:00.000 97 666 bytes 633 925 bytes 00:00:01.000
2 0:00:01.000 0:01:01.961 29 693 kbps 39 066 kbps 00:00:30.997 32 334 kbps 00:00:08.942 31 456 kbps 00:00:03.970 123 847 bytes 670 971 bytes 00:00:02.001

STREAM DIAGNOSTICS:

File PID Type Codec Language Seconds Bitrate Bytes Packets
---- --- ---- ----- -------- -------------- -------------- ------------- -----
00001.M2TS 4113 (0x1011) 0x02 MPEG-2 62,930 29 622 233 010 777 1 267 475
00001.M2TS 4352 (0x1100) 0x80 LPCM eng (English) 62,930 1 543 12 135 796 75 534


QUICK SUMMARY:

Disc Title: BLETCHLEY_CIRCLE_BLU-RAY_HDCLUB
Disc Size: 47 059 250 040 bytes
Protection: AACS
BD-Java: Yes
Playlist: 00001.MPLS
Size: 258 203 712 bytes
Length: 0:01:02.962
Total Bitrate: 32,81 Mbps
Video: MPEG-2 Video / 29598 kbps / 1080i / 29,970 fps / 16:9
Audio: English / LPCM Audio / 2.0 / 48 kHz / 1536 kbps / 16-bit

********************
PLAYLIST: 01001.MPLS
********************


Код:
Total Video
Title Codec Length Movie Size Disc Size Bitrate Bitrate Main Audio Track Secondary Audio Track
----- ------ ------- -------------- -------------- ------- ------- ------------------ ---------------------
01001.MPLS MPEG-2 0:01:02 258 203 712 47 059 250 040 32,81 29,60 LPCM 2.0 1536Kbps (48kHz/16-bit)
Код:
DISC INFO:

Disc Title: BLETCHLEY_CIRCLE_BLU-RAY_HDCLUB
Disc Size: 47 059 250 040 bytes
Protection: AACS
BD-Java: Yes
BDInfo: 0.5.8

PLAYLIST REPORT:

Name: 01001.MPLS
Length: 0:01:02.962 (h:m:s.ms)
Size: 258 203 712 bytes
Total Bitrate: 32,81 Mbps

VIDEO:

Codec Bitrate Deion
----- ------- -----------
MPEG-2 Video 29598 kbps 1080i / 29,970 fps / 16:9

AUDIO:

Codec Language Bitrate Deion
----- -------- ------- -----------
LPCM Audio English 1536 kbps 2.0 / 48 kHz / 1536 kbps / 16-bit

FILES:

Name Time In Length Size Total Bitrate
---- ------- ------ ---- -------------
00001.M2TS 0:00:00.000 0:01:02.962 258 203 712 32 807

CHAPTERS:

Number Time In Length Avg Video Rate Max 1-Sec Rate Max 1-Sec Time Max 5-Sec Rate Max 5-Sec Time Max 10Sec Rate Max 10Sec Time Avg Frame Size Max Frame Size Max Frame Time
------ ------- ------ -------------- -------------- -------------- -------------- -------------- -------------- -------------- -------------- -------------- --------------
1 0:00:00.000 0:00:01.000 24 197 kbps 0 kbps 00:00:00.000 0 kbps 00:00:00.000 0 kbps 00:00:00.000 97 666 bytes 633 925 bytes 00:00:01.000
2 0:00:01.000 0:01:01.961 29 693 kbps 39 066 kbps 00:00:30.997 32 334 kbps 00:00:08.942 31 456 kbps 00:00:03.970 123 847 bytes 670 971 bytes 00:00:02.001

STREAM DIAGNOSTICS:

File PID Type Codec Language Seconds Bitrate Bytes Packets
---- --- ---- ----- -------- -------------- -------------- ------------- -----
00001.M2TS 4113 (0x1011) 0x02 MPEG-2 62,930 29 622 233 010 777 1 267 475
00001.M2TS 4352 (0x1100) 0x80 LPCM eng (English) 62,930 1 543 12 135 796 75 534


QUICK SUMMARY:

Disc Title: BLETCHLEY_CIRCLE_BLU-RAY_HDCLUB
Disc Size: 47 059 250 040 bytes
Protection: AACS
BD-Java: Yes
Playlist: 01001.MPLS
Size: 258 203 712 bytes
Length: 0:01:02.962
Total Bitrate: 32,81 Mbps
Video: MPEG-2 Video / 29598 kbps / 1080i / 29,970 fps / 16:9
Audio: English / LPCM Audio / 2.0 / 48 kHz / 1536 kbps / 16-bit



Скачать Код.убийства.The.Bletchley.Circle.(сезон.01).(Энди.де.Эммони.Джэми.Пэйн).[2012.триллер.Blu-ray].[1080i].[MVO].torrent без регистрации
Золото ЗОЛОТАЯ РАЗДАЧА! СКАЧАННОЕ НЕ ЗАСЧИТЫВАЕТСЯ! Золото
Дата: Зарегистрирован   [ Тип: внутренний ] Как тут cкачать?
MAGNET ссылка
MAGNET ссылка


Скачать .torrent

223 KB

Статус: проверено DHT
Скачан: торрент - 104 раз, раздача полностью - 2 раз
Размер: 43,83 GB
Оценка:  - (Голосов: 0)
Поблагодарили: 1
Поделиться ссылкой на эту раздачу с друзьями:
В контактеFacebookОдноклассникиTwitterLivejournalМой МирLiveinternet
 

 
Показать сообщения:    


Вы не можете начинать темы
Вы не можете отвечать на сообщения
Вы не можете редактировать свои сообщения
Вы не можете удалять свои сообщения
Вы не можете голосовать в опросах
Вы не можете прикреплять файлы к сообщениям
Вы можете скачивать файлы