Loading...
Error

Скачать Убийство на пляже / Broadchurch (сезон 01) (Джеймс Стронг, Эрос Лин) [2013, драма, криминал, HDTV] [720p] [MVO (Первый канал)] торрент без регистрации

 
Статистика раздачи
Размер:  22,46 GB   |    Скачан:  121 раз
Сидов:  1  [  0 KB/s  ]  
 
Автор Сообщение

МихаНЕзатор

[] 

Информация о фильме
Название: Убийство на пляже
Оригинальное название: Broadchurch
Год выхода: 2013
Жанр: драма, криминал
Режиссер: Джеймс Стронг / James Strong, Эрос Лин / Euros Lyn

В ролях: Оливия Колман (DS Ellie Miller), Дэвид Теннант (DI Alec Hardy), Джоди Уиттакер (Beth Latimer), Эндрю Бачан (Mark Latimer), Адам Уилсон (Tom Miller), Шарлотта Бомонт (Chloe Latimer), Джонатан Бэйли (Olly Stevens), Артур Дарвилл (Rev. Paul Coates), Мэттью Гравель (Joe Miller), Кэролин Пиклз (Maggie Radcliffe), Полин Куирк (Susan Wright), Джо Симс (Nige Carter)

О фильме: Жарким июльским утром, в разгар туристического сезона в дорсетском городке под названием Бродчёрч пропадает 11-летний школьник Дэнни Латимер. Его мать, Бет, начинает искать его, тогда как её лучшая подруга, Элли Миллер, офицер местной полиции, выходит из отпуска на работу и обнаруживает, что повышение, на которое она рассчитывала, достаётся детективу-инспектору Алеку Харди, приезжему с репутацией неудачника. Когда тело Дэнни находят под живописными скалами, обрамляющими город, противоположности сталкиваются. И Миллер, и Харди твёрдо намерены решить загадку убийства Дэнни. Элли, возможно, слишком сочувствуя людям из её сообщества, Алек столь же эффективно, сколько и бесстрастно. Когда новость о преступлении разлетается по городу, запускается цепная реакция, которая привлечёт к Бродчёрчу внимание всей страны, вытаскивая на свет город, его обитателей и их секреты.



Страна: Великобритания
Продолжительность: 8 x ~ 00:45:00
Перевод: Профессиональный (многоголосый, закадровый) Первый канал

Файл
Кодек: MPEG-4 AVC
Качество: BDRip 720p от NTb
Видео: ~ 8000 Кбит/с, 1280x720, 25 кадр/с
Звук:
Аудио#1: Russian: 48 kHz, AC3, 2/0 (L,R) ch, ~192 kbps avg |Профессиональный многоголосый, Первый канал|
Аудио#2: English: 48 kHz, AC3, 2/0 (L,R) ch, ~192 kbps avg
Аудио#3: English: 48 kHz, AC3, 2/0 (L,R) ch, ~192 kbps avg |Commentary for 1, 8 episodes|
Субтитры: английские

by Vlad1k_H_

01: Эпизод #1.1 / Episode #1.1
02: Эпизод #1.2 / Episode #1.2
03: Эпизод #1.3 / Episode #1.3
04: Эпизод #1.4 / Episode #1.4
05: Эпизод #1.5 / Episode #1.5
06: Эпизод #1.6 / Episode #1.6
07: Эпизод #1.7 / Episode #1.7
08: Эпизод #1.8 / Episode #1.8

За запись озвучки Первого канала спасибо Nez.
Диски приобретены в рамках сервиса "Копилка: Помоги с Blu-ray" . Спонсоры: Кириллка. Для меценатов раздача золотом.

Общее
Уникальный идентификатор : 236788645603671319753276872515723741296 (0xB223D595124EA036B0C81520894C4870)
Полное имя : Broadchurch.S01.2013.720p.BluRay.HDCLUBBroadchurch.S01E01.720p.BluRay.Rus.Eng.HDCLUB.mkv
Формат : Matroska
Версия формата : Version 4 / Version 2
Размер файла : 2,61 Гбайт
Продолжительность : 46 м.
Общий поток : 8061 Кбит/сек
Дата кодирования : UTC 2013-12-06 05:10:05
Программа кодирования : mkvmerge v6.5.0 ('Isn't she lovely') built on Oct 20 2013 12:50:05
Библиотека кодирования : libebml v1.3.0 + libmatroska v1.4.1

Видео
Идентификатор : 1
Формат : AVC
Формат/Информация : Advanced Video Codec
Профиль формата : High@L4.1
Параметр CABAC формата : Да
Параметр ReFrames формата : 9 кадров
Идентификатор кодека : V_MPEG4/ISO/AVC
Продолжительность : 46 м.
Битрейт : 7324 Кбит/сек
Ширина : 1280 пикселей
Высота : 720 пикселей
Соотношение сторон : 16:9
Режим частоты кадров : Постоянный
Частота кадров : 25,000 кадров/сек
Цветовое пространство : YUV
Субдискретизация насыщенности : 4:2:0
Битовая глубина : 8 бит
Тип развёртки : Прогрессивная
Бит/(Пиксели*Кадры) : 0.318
Размер потока : 2,37 Гбайт (91%)
Библиотека кодирования : x264 core 132 r2309 3b1f1f7
Настройки программы : cabac=1 / ref=9 / deblock=1:-3:-3 / analyse=0x3:0x113 / me=umh / subme=10 / psy=1 / psy_rd=1.10:0.00 / mixed_ref=1 / me_range=32 / chroma_me=1 / trellis=2 / 8x8dct=1 / cqm=0 / deadzone=21,11 / fast_pskip=0 / chroma_qp_offset=-2 / threads=12 / lookahead_threads=2 / sliced_threads=0 / nr=0 / decimate=0 / interlaced=0 / bluray_compat=0 / constrained_intra=0 / bframes=9 / b_pyramid=2 / b_adapt=2 / b_bias=0 / direct=3 / weightb=1 / open_gop=0 / weightp=2 / keyint=250 / keyint_min=23 / scenecut=40 / intra_refresh=0 / rc=crf / mbtree=0 / crf=15.5 / qcomp=0.70 / qpmin=0 / qpmax=69 / qpstep=4 / ip_ratio=1.40 / pb_ratio=1.30 / aq=1:0.80
Язык : English
Default : Да
Forced : Нет

Аудио #1
Идентификатор : 2
Формат : AC-3
Формат/Информация : Audio Coding 3
Расширение режима : CM (complete main)
Параметр Endianness формата : Big
Идентификатор кодека : A_AC3
Продолжительность : 46 м.
Вид битрейта : Постоянный
Битрейт : 192 Кбит/сек
Каналы : 2 канала
Расположение каналов : Front: L R
Частота : 48,0 КГц
Битовая глубина : 16 бит
Метод сжатия : С потерями
Размер потока : 63,6 Мбайт (2%)
Заголовок : Первый канал @ DD 2.0
Язык : Russian
Default : Да
Forced : Нет

Аудио #2
Идентификатор : 3
Формат : AC-3
Формат/Информация : Audio Coding 3
Расширение режима : CM (complete main)
Параметр Endianness формата : Big
Идентификатор кодека : A_AC3
Продолжительность : 46 м.
Вид битрейта : Постоянный
Битрейт : 192 Кбит/сек
Каналы : 2 канала
Расположение каналов : Front: L R
Частота : 48,0 КГц
Битовая глубина : 16 бит
Метод сжатия : С потерями
Размер потока : 63,6 Мбайт (2%)
Заголовок : Original @ DD 2.0
Язык : English
Default : Нет
Forced : Нет

Аудио #3
Идентификатор : 4
Формат : AC-3
Формат/Информация : Audio Coding 3
Расширение режима : CM (complete main)
Параметр Endianness формата : Big
Идентификатор кодека : A_AC3
Продолжительность : 46 м.
Вид битрейта : Постоянный
Битрейт : 192 Кбит/сек
Каналы : 2 канала
Расположение каналов : Front: L R
Частота : 48,0 КГц
Битовая глубина : 16 бит
Метод сжатия : С потерями
Размер потока : 63,6 Мбайт (2%)
Заголовок : Commentary
Язык : English
Default : Нет
Forced : Нет

Текст
Идентификатор : 5
Формат : UTF-8
Идентификатор кодека : S_TEXT/UTF8
Идентификатор кодека/Информация : UTF-8 Plain Text
Язык : English
Default : Нет
Forced : Нет

Меню
00:00:00.000 : en:00:00:00.000
00:01:13.680 : en:00:01:13.680
00:11:43.120 : en:00:11:43.120
00:23:58.320 : en:00:23:58.320
00:36:19.480 : en:00:36:19.480
00:45:42.200 : en:00:45:42.200



Скачать Убийство.на.пляже.Broadchurch.(сезон.01).(Джеймс.Стронг.Эрос.Лин).[2013.драма.криминал.HDTV].[720p].[MVO.(Первый.канал)].torrent без регистрации
Золото ЗОЛОТАЯ РАЗДАЧА! СКАЧАННОЕ НЕ ЗАСЧИТЫВАЕТСЯ! Золото
Дата: Зарегистрирован   [ Тип: внутренний ] Как тут cкачать?
MAGNET ссылка
MAGNET ссылка


Скачать .torrent

29 KB

Статус: проверено DHT
Скачан: торрент - 121 раз, раздача полностью - 5 раз
Размер: 22,46 GB
Оценка:  - (Голосов: 0)
Поблагодарили: 2
Поделиться ссылкой на эту раздачу с друзьями:
В контактеFacebookОдноклассникиTwitterLivejournalМой МирLiveinternet
 

 
Показать сообщения:    


Вы не можете начинать темы
Вы не можете отвечать на сообщения
Вы не можете редактировать свои сообщения
Вы не можете удалять свои сообщения
Вы не можете голосовать в опросах
Вы не можете прикреплять файлы к сообщениям
Вы можете скачивать файлы