Loading...
Error

Скачать В плену песков / A Far Off Place (Микаэл Саломон / Mikael Salomon) [1993, драма, мелодрама, приключения, семейный, DVDRip] [AVO] (Л.Володарский) + [MVO] (Видеосервис) торрент без регистрации

 
Статистика раздачи
Размер:  1,45 GB   |    Скачан:  108 раз
Сидов:  1  [  0 KB/s  ]  
 
Автор Сообщение

leon030982

[] 

В плену песков / A Far Off Place


Год выпуска: 1993
Страна: США
Жанр: драма, мелодрама, приключения, семейный
Продолжительность: 01:47:30
Перевод: Авторский (одноголосый, закадровый) [Л.Володарский]
Отдельно:
Перевод: Профессиональный (многоголосный, закадровый) [Видеосервис] -- скачать с Яндекс Диск
Cубтитры: нет

Режиссер: Микаэл Саломон / Mikael Salomon

В ролях: Риз Уизерспун, Итэн Эмбри, Джек Томпсон, Сарел Бок, Роберт Джон Бёрк, Патриция Кэлембер, Дэниэл Джерролл

Описание: Нинни и Гарри — единственные свидетели убийства на отдаленной ферме в затерянной саванне. Теперь по их следам идут коварные убийцы. Единственный способ спастись в этой ситуации — пройти 2000 километров по бескрайней пустыне Калахари.



Качество видео: DVDRip
Формат видео: AVI
Видео кодек: XviD
Аудио кодек: AC3
Видео: 704x304 (2.32:1), 23.976 fps, XviD build 50 ~1729 kbps avg, 0.34 bit/pixel
Аудио: 48 kHz, AC3 Dolby Digital, 2/0 (L,R) ch, ~192 kbps [Л.Володарский]
Отдельно:
Аудио: 48 kHz, MPEG Layer 3, 2 ch, 128.00 kbps avg отдельно [Видеосервис] -- скачать с Яндекс Диск

Релиз
Дорога от alenavova.
Синхрон - ale_x2008.
Ну и скромное участие DeASS во всем этом.
Фильм основан на повестях «A Story Like The Wind» и «A Far Off Place» южноафриканского писателя, натуралиста и журналиста Лоуренса Ван дер Поста, впервые опубликованных в 1972 и 1974 годах.
Сеансы картины в американских кинотеатрах предваряла диснеевская анимационная короткометражка «Запутанный след» (1993).
Риз Уизерспун провела некоторое время с общиной народа Матабеле в Южной Африке с тем, чтобы усовершенствовать свои познания бушменского наречия, на котором она разговаривает в фильме.
В плену песков - A Far Off Place [Rip by Edich2].avi
Format : AVI
Format/Info : Audio Video Interleave
File size : 1.45 GiB
Duration : 1h 47mn
Overall bit rate : 1 931 Kbps
Movie name : В плену песков - A Far Off Place [Rip by Edich2]
Director : Rip by Edich2
Writing application : VirtualDubMod 1.5.10.2 (build 2540/release)

Video
ID : 0
Format : MPEG-4 Visual
Format profile : Advanced Simple@L5
Format settings, BVOP : 2
Format settings, QPel : No
Format settings, GMC : No warppoints
Format settings, Matrix : Custom
Codec ID : XVID
Codec ID/Hint : XviD
Duration : 1h 47mn
Bit rate : 1 730 Kbps
Width : 704 pixels
Height : 304 pixels
Display aspect ratio : 2.35:1
Frame rate : 23.976 fps
Color space : YUV
Chroma subsampling : 4:2:0
Bit depth : 8 bits
Scan type : Progressive
Compression mode : Lossy
Bits/(Pixel*Frame) : 0.337
Stream size : 1.30 GiB (90%)
Writing library : XviD 1.2.1 (UTC 2008-12-04)
Audio
ID : 1
Format : AC-3
Format/Info : Audio Coding 3
Mode extension : CM (complete main)
Format settings, Endianness : Big
Codec ID : 2000
Duration : 1h 47mn
Bit rate mode : Constant
Bit rate : 192 Kbps
Channel count : 2 channels
Channel positions : Front: L R
Sampling rate : 48.0 KHz
Bit depth : 16 bits
Compression mode : Lossy
Stream size : 148 MiB (10%)
Alignment : Split accross interleaves
Interleave, duration : 42 ms (1.00 video frame)
Interleave, preload duration : 500 ms



Скачать В.плену.песков.A.Far.Off.Place.(Микаэл.Саломон.Mikael.Salomon).[1993.драма.мелодрама.приключения.семейный.DVDRip].[AVO].(Л.Володарский).+.[MVO].(Видеосервис).torrent без регистрации
Золото ЗОЛОТАЯ РАЗДАЧА! СКАЧАННОЕ НЕ ЗАСЧИТЫВАЕТСЯ! Золото
Дата: Зарегистрирован   [ Тип: внутренний ] Как тут cкачать?
MAGNET ссылка
MAGNET ссылка


Скачать .torrent

15 KB

Статус: проверено DHT
Скачан: торрент - 108 раз, раздача полностью - 3 раз
Размер: 1,45 GB
Оценка:  5 (Голосов: 1)
Поблагодарили: 1
Поделиться ссылкой на эту раздачу с друзьями:
В контактеFacebookОдноклассникиTwitterLivejournalМой МирLiveinternet
 

 
Показать сообщения:    


Вы не можете начинать темы
Вы не можете отвечать на сообщения
Вы не можете редактировать свои сообщения
Вы не можете удалять свои сообщения
Вы не можете голосовать в опросах
Вы не можете прикреплять файлы к сообщениям
Вы можете скачивать файлы