Loading...
Error

Скачать Закон и кулак / Prawo i piesc (Ежи Гоффман, Эдвард Скужевский) [1964, военный, драма, DVDRip] [Dub] торрент без регистрации

 
Статистика раздачи
Размер:  1,46 GB   |    Скачан:  105 раз
Сидов:  1  [  0 KB/s  ]  
 
Автор Сообщение

Marsianka

[] 

Год выпуска: 1964
Страна: Польша
Студия: Kamera Film Unit

Перевод: Профессиональный (полное дублирование)
Субтитры: нет
Жанр: военный, драма
Продолжительность: 01:32:16

Режиссер: Ежи Гоффман / Jerzy Hoffman, Эдвард Скужевский / Edward Skorzewski

В ролях: Густав Холоубек, Зофья Мрозовска, Ханна Скаржанка, Веслав Голас, Здзислав Маклякевич, Рышард Петруский, Ежи Пшибыльский, Весвава Квашьневска, Эва Висьневска, Збигнев Добжиньский, Зофья Червиньска, Юзеф Новак...
Роли дублировали: Анатолий Кузнецов, Серафима Холина, Андрей Тарасов, Рудольф Панков, Роберт Чумак, Владимир Балашов, Нина Гребешкова, Нина Крачковская, Олег Голубицкий, Борис Кордунов, Иван Рыжов, Виктор Авдюшко...

Описание: Июль 1945г. Представители польского правительства формируют группы добровольцев, в задачу которых входит охрана государственного имущества на землях, освобожденных от гитлеровцев. В одной из таких групп оказалось пятеро бандитов, готовых на все ради личной наживы. Шестой член группы, бывший узник Освенцима Анджей вступает с ними в непримиримую борьбу

Исходник: DVD5 R5
Качество: DVDRip
Формат: AVI

Видео: 688x528 (4:3), 25.000 fps, XviD MPEG-4 ~1982 kbps avg, 0.218 bit/pixel
Аудио: 48 kHz, Dolby AC3, 2 ch, 256.00 kbps Constant

Релиз от:

Общее
Полное имя : Zakon.i.kulak.1964.D.DVDRip_[Youtracker]_by_AVPStudio.avi
Формат : AVI
Формат/Информация : Audio Video Interleave
Размер файла : 1,46 Гбайт
Продолжительность : 1 ч. 32 м.
Общий поток : 2248 Кбит/сек
Программа кодирования : VirtualDubMod 1.5.10.3 | www.virtualdub-fr.org || (build 2550/release)
Библиотека кодирования : VirtualDubMod build 2550/release

Видео
Идентификатор : 0
Формат : MPEG-4 Visual
Профиль формата : Advanced Simple@L5
Параметр BVOP формата : 1
Параметр QPel формата : Нет
Параметр GMC формата : Без точки перехода
Параметр матрицы формата : Выборочная
Идентификатор кодека : XVID
Идентификатор кодека/Подсказка : XviD
Продолжительность : 1 ч. 32 м.
Битрейт : 1982 Кбит/сек
Ширина : 688 пикселей
Высота : 528 пикселей
Соотношение сторон : 4:3
Частота кадров : 25,000 кадров/сек
Цветовое пространство : YUV
Субдискретизация насыщенности : 4:2:0
Битовая глубина : 8 бит
Тип развёртки : Прогрессивная
Метод сжатия : С потерями
Бит/(Пиксели*Кадры) : 0.218
Размер потока : 1,28 Гбайт (88%)
Библиотека кодирования : XviD 65

Аудио
Идентификатор : 1
Формат : AC-3
Формат/Информация : Audio Coding 3
Расширение режима : CM (complete main)
Параметр Endianness формата : Big
Идентификатор кодека : 2000
Продолжительность : 1 ч. 32 м.
Вид битрейта : Постоянный
Битрейт : 256 Кбит/сек
Каналы : 2 канала
Расположение каналов : Front: L R
Частота : 48,0 КГц
Битовая глубина : 16 бит
Метод сжатия : С потерями
Размер потока : 169 Мбайт (11%)
Выравнивание : Разделение по промежуткам
Продолжительность промежутка : 40 мс. (1,00 видеокадр)
Время предзагрузки промежутка : 500 мс.



Скачать Закон.и.кулак.Prawo.i.piesc.(Ежи.Гоффман.Эдвард.Скужевский).[1964.военный.драма.DVDRip].[Dub].torrent без регистрации
Золото ЗОЛОТАЯ РАЗДАЧА! СКАЧАННОЕ НЕ ЗАСЧИТЫВАЕТСЯ! Золото
Дата: Зарегистрирован   [ Тип: внутренний ] Как тут cкачать?
MAGNET ссылка
MAGNET ссылка


Скачать .torrent

15 KB

Статус: проверено DHT
Скачан: торрент - 105 раз, раздача полностью - 1 раз
Размер: 1,46 GB
Оценка:  - (Голосов: 0)
Поблагодарили: 1
Поделиться ссылкой на эту раздачу с друзьями:
В контактеFacebookОдноклассникиTwitterLivejournalМой МирLiveinternet
 

 
Показать сообщения:    


Вы не можете начинать темы
Вы не можете отвечать на сообщения
Вы не можете редактировать свои сообщения
Вы не можете удалять свои сообщения
Вы не можете голосовать в опросах
Вы не можете прикреплять файлы к сообщениям
Вы можете скачивать файлы