Loading...
Error

Скачать У холмов есть глаза / The Hills Have Eyes (Александр Ажа) [2006 г., ужасы, триллер, BDRip-AVC] [Unrated] [DUB, MVO] торрент без регистрации

 
Статистика раздачи
Размер:  2,18 GB   |    Скачан:  127 раз

Полного источника не было: 25 минут

 
Автор Сообщение

durik

[] 


У холмов есть глаза / The Hills Have Eyes [Unrated]

«Счастлив тот, кто умрет первым»

Название: У холмов есть глаза
Оригинальное название: The Hills Have Eyes
Год выхода: 2006
Жанр: Ужасы, триллер
Режиссер: Александр Ажа
В ролях: Аарон Стэнфорд, Кэтлин Куинлен, Винесса Шоу, Эмили де Рэйвин, Дэн Берд, Том Бауэр, Билли Драго, Роберт Джой, Тед Левайн, Десмонд Аскью

О фильме:
Путешествуя по Америке в доме на колесах, семейство Картеров, попав в аварию, оказывается в таинственной ядерной зоне, отрезанной от цивилизации. Однако со временем Картеры обнаруживают, что на этой вроде бы пустынной территории обитает кровожадная семейка мутантов, которые начинают вести охоту на них..



Страна: США, Франция
Студия: 20th Century Fox [France] | Fox Searchlight [United States]
Продолжительность: 01:48:24
Перевод:
● Профессиональный (дублированный) Невафильм
● Профессиональный (двухголосый закадровый) П.Гланц и И.Королёва

Кодек: AVC / MKV
Качество: BDRip-AVC
Видео: 1024x432, 2106 kbps, 23,976 fps, 0,199 Bits/(Pixel*Frame)
Звук:
AC3, 48 kHz, 6 ch, 384 kbps - DUB
AC3, 48 kHz, 6 ch, 384 kbps - DVO
Субтитры:
Русские (на надписи)
Русские (полные)
Английские (для слабослышащих)

Релиз от:

Автор рипа: Bathory
General
Unique ID : 224351886809813674427898057893819113289 (0xA8C89A0844F13483B4DF4412BEDEDF49)
Complete name : G:The.Hills.Have.Eyes.2006.Unrated.BDRip-AVC_by_Bathory.mkv
Format : Matroska
Format version : Version 4 / Version 2
File size : 2.18 GiB
Duration : 1h 48mn
Overall bit rate : 2 876 Kbps
Movie name : The Hills Have Eyes (2006) [Unrated]_HDCLUB
Encoded date : UTC 2013-12-19 12:55:12
Writing application : mkvmerge v6.5.0 ('Isn't she lovely') built on Oct 20 2013 12:50:05
Writing library : libebml v1.3.0 + libmatroska v1.4.1

Video
ID : 1
Format : AVC
Format/Info : Advanced Video Codec
Format profile : High@L4.1
Format settings, CABAC : Yes
Format settings, ReFrames : 10 frames
Codec ID : V_MPEG4/ISO/AVC
Duration : 1h 48mn
Bit rate : 2 106 Kbps
Width : 1 024 pixels
Height : 432 pixels
Display aspect ratio : 2.40:1
Frame rate mode : Constant
Frame rate : 23.976 fps
Color space : YUV
Chroma subsampling : 4:2:0
Bit depth : 8 bits
Scan type : Progressive
Bits/(Pixel*Frame) : 0.199
Stream size : 1.55 GiB (71%)
Writing library : x264 core 138 r2358 9e941d1
Encoding settings : cabac=1 / ref=10 / deblock=1:-2:-2 / analyse=0x3:0x133 / me=umh / subme=11 / psy=1 / psy_rd=1.15:0.12 / mixed_ref=1 / me_range=32 / chroma_me=1 / trellis=2 / 8x8dct=1 / cqm=0 / deadzone=21,11 / fast_pskip=0 / chroma_qp_offset=-3 / threads=6 / lookahead_threads=1 / sliced_threads=0 / nr=0 / decimate=1 / interlaced=0 / bluray_compat=0 / constrained_intra=0 / bframes=16 / b_pyramid=2 / b_adapt=2 / b_bias=0 / direct=3 / weightb=1 / open_gop=0 / weightp=2 / keyint=240 / keyint_min=23 / scenecut=40 / intra_refresh=0 / rc_lookahead=60 / rc=2pass / mbtree=1 / bitrate=2106 / ratetol=1.0 / qcomp=0.70 / qpmin=0 / qpmax=69 / qpstep=4 / cplxblur=20.0 / qblur=0.5 / vbv_maxrate=62500 / vbv_bufsize=78125 / nal_hrd=none / ip_ratio=1.40 / aq=1:1.00
Default : Yes
Forced : No

Audio #1
ID : 2
Format : AC-3
Format/Info : Audio Coding 3
Mode extension : CM (complete main)
Format settings, Endianness : Big
Codec ID : A_AC3
Duration : 1h 48mn
Bit rate mode : Constant
Bit rate : 384 Kbps
Channel count : 6 channels
Channel positions : Front: L C R, Side: L R, LFE
Sampling rate : 48.0 KHz
Bit depth : 16 bits
Compression mode : Lossy
Stream size : 298 MiB (13%)
Language : Russian
Default : Yes
Forced : No

Audio #2
ID : 3
Format : AC-3
Format/Info : Audio Coding 3
Mode extension : CM (complete main)
Format settings, Endianness : Big
Codec ID : A_AC3
Duration : 1h 48mn
Bit rate mode : Constant
Bit rate : 384 Kbps
Channel count : 6 channels
Channel positions : Front: L C R, Side: L R, LFE
Sampling rate : 48.0 KHz
Bit depth : 16 bits
Compression mode : Lossy
Stream size : 298 MiB (13%)
Language : Russian
Default : No
Forced : No

Text #1
ID : 4
Format : UTF-8
Codec ID : S_TEXT/UTF8
Codec ID/Info : UTF-8 Plain Text
Title : Forced
Language : Russian
Default : Yes
Forced : No

Text #2
ID : 5
Format : UTF-8
Codec ID : S_TEXT/UTF8
Codec ID/Info : UTF-8 Plain Text
Title : Full
Language : Russian
Default : No
Forced : No

Text #3
ID : 6
Format : UTF-8
Codec ID : S_TEXT/UTF8
Codec ID/Info : UTF-8 Plain Text
Title : SDH
Language : English
Default : No
Forced : No



Скачать У.холмов.есть.глаза.The.Hills.Have.Eyes.(Александр.Ажа).[2006.г.ужасы.триллер.BDRip-AVC].[Unrated].[DUB.MVO].torrent без регистрации
Золото ЗОЛОТАЯ РАЗДАЧА! СКАЧАННОЕ НЕ ЗАСЧИТЫВАЕТСЯ! Золото
Дата: Зарегистрирован   [ Тип: внутренний ] Как тут cкачать?
MAGNET ссылка
MAGNET ссылка


Скачать .torrent

11 KB

Статус: проверено DHT
Скачан: торрент - 127 раз, раздача полностью - 51 раз
Размер: 2,18 GB
Оценка:  5 (Голосов: 1)
Поблагодарили: 3
Поделиться ссылкой на эту раздачу с друзьями:
В контактеFacebookОдноклассникиTwitterLivejournalМой МирLiveinternet
 

 
Показать сообщения:    


Вы не можете начинать темы
Вы не можете отвечать на сообщения
Вы не можете редактировать свои сообщения
Вы не можете удалять свои сообщения
Вы не можете голосовать в опросах
Вы не можете прикреплять файлы к сообщениям
Вы можете скачивать файлы