Loading...
Error

Скачать Говорящий с призраками / Haunted (сезон 01) (Майкл Раймер, Рик Уоллес, Билл Л. Нортон) [2002, детектив, ужасы, драма, мистика, триллер, BDRip] [720p] 2x[MVO] торрент без регистрации

 
Статистика раздачи
Размер:  38,52 GB   |    Скачан:  143 раза
Сидов:  1  [  0 KB/s  ]  
 
Автор Сообщение

МихаНЕзатор

[] 

Информация о фильме
Название: Говорящий с призраками
Оригинальное название: Haunted
Год выхода: 2002
Жанр: детектив, ужасы, драма, мистика, триллер
Режиссер: Майкл Раймер, Рик Уоллес, Билл Л. Нортон

В ролях: Мэттью Фокс, Расселл Хорнсби, Линн Коллинз, Майкл Ирби, Джон Манн, Бри Майкл Уорнер, Alec Ledd, Мария Арк, Бэрри Брандт, Эдди Кехилл

О фильме: Фрэнк Тэйлор - самый необычный частный детектив не только в родном Лос-Анджелесе, но и, пожалуй, в целом свете. Имея на руках даже минимум улик, Фрэнк раскрывает самые громкие преступления в Городе Ангелов.

Он может связать воедино события, которые, на первый взгляд, не имеют ничего общего, как, например, самоубийство нищего ветерана Вьетнама и исчезновение светской львицы. Полицейские завидуют успехам Фрэнка Тэйлора, но при этом считают, что этот парень «с приветом».

Клиенты Фрэнка Тэйлора никогда ему не платят, более того, от них можно ожидать любой выходки. И вот еще одно... первая встреча Фрэнка с клиентами обычно происходит в морге... так как он обычно берется за расследование нового дела, получив «сигнал» с того света. Жертвы убийств обращаются к Фрэнку в надежде, что с его помощью смогут добиться справедливого возмездия и наказать злодеев.

Привидения - особенные клиенты, с ними невозможно побеседовать по душам, и их просьбы невозможно игнорировать. Иногда они дают Фрэнку всего один ключ к раскрытию преступления - какую-то фразу, предмет или видение. А дальше Фрэнк должен уже действовать сам, полагаться на собственную интуицию и поддержку друзей.

Настоящих друзей у Фрэнка трое, и по иронии судьбы, все они его бывшие: экс-напарник из полиции - Маркус, экс-супруга - Джесс, она же мать их пропавшего без вести сына, а также экс-преступник, на которого Фрэнк когда-то сам надел наручники, а потом отпустил - Данте.

Данте уже давно исправился и готов, если понадобится, пройти вместе с Фрэнком все девять кругов ада. Иногда мертвые возвращаются, иногда тайны, унесенные в могилу, удается раскрыть.

Релиз от: by HPotter


Страна: США
Продолжительность: 07:20:26
Перевод: Перевод 1: Профессиональный (многоголосый закадровый) фирма «СВ-Кадр», СТС
Перевод 2: Профессиональный (многоголосый закадровый) студия «Селена Интернешнл», ТВ3

Файл
Кодек: MPEG-4 AVC
Качество: BDRip 720p
Видео: 1280x720 at 25.000 fps, x264@L4.1, crf, ~10699 kbps avg
Звук:
Аудио 1: Russian: 48 kHz, AC3, 2/0 (L,R) ch, ~192.00 kbps avg |Многоголосый закадровый, фирма «СВ-Кадр», СТС|
Аудио 2: Russian: 48 kHz, AC3, 2/0 (L,R) ch, ~192.00 kbps avg |Многоголосый закадровый, студия «Селена Интернешнл», ТВ3|
Аудио 3: English: 48 kHz, AC3, 3/2 (L,C,R,l,r) + LFE ch, ~640.00 kbps avg
Субтитры: German

АНОНСЫ ПОПУЛЯРНЫХ РАЗДАЧ

01: "Pilot / Пилот"
02: "Grievous Angels / Печальные ангелы"
03: "Fidelity / Верность"
04: "Abby / Эбби"
05: "Blind Witness / Слепой свидетель"
06: "Nocturne / Ноктюрн"
07: "A Three Hour Tour / Трехчасовое путешествие"
08: "Nexus / Узы"
09: "Simon Redux / Возвращение Саймона"
10: "Last Call / Последний звонок"
11: "Seeking Asylum / Призрак невесты"
Сохранены оригинальные чаптеры как на Blu-ray.
Нумерация эпизодов как на tv.com.

За озвучку СТС спасибо lith. Очень приличное качество, для записи тюнером с Пермского СТС.
Были убраны практически все бесчисленные артефакты записи, по счастью 99% которых пришлось на звуки.
В 6-й серии на "В предыдущих сериях" сделана вставка из озвучки ТВ3.
Перевод для СТС делался в 2003г.

За озвучку ТВ3 спасибо NovaFilm. Записи были с некоторым количеством артефактов.
Может быть перевод у ТВ3 в некоторой степени и точнее, но слушать их невозможно. Имхо .

Общее
Уникальный идентификатор : 220619735188107795883546253815654103684 (0xA5F9D0C02969C2CA85C23CA0A30FBA84)
Полное имя : Haunted.S01.2002.720p.BluRay.Rus.Eng.HDCLUBHaunted.S01E07.A.Three.Hour.Tour.720p.BluRay.2xRus.Eng.HDCLUB.mkv
Формат : Matroska
Версия формата : Version 4 / Version 2
Размер файла : 3,83 Гбайт
Продолжительность : 40 м.
Общий поток : 13,7 Мбит/сек
Дата кодирования : UTC 2013-12-20 09:06:10
Программа кодирования : mkvmerge v6.6.0 ('The Edge Of The In Between') built on Dec 1 2013 17:55:00
Библиотека кодирования : libebml v1.3.0 + libmatroska v1.4.1

Видео
Идентификатор : 1
Формат : AVC
Формат/Информация : Advanced Video Codec
Профиль формата : High@L4.1
Параметр CABAC формата : Да
Параметр ReFrames формата : 9 кадров
Идентификатор кодека : V_MPEG4/ISO/AVC
Продолжительность : 40 м.
Битрейт : 12,4 Мбит/сек
Ширина : 1280 пикселей
Высота : 720 пикселей
Соотношение сторон : 16:9
Режим частоты кадров : Постоянный
Частота кадров : 25,000 кадров/сек
Цветовое пространство : YUV
Субдискретизация насыщенности : 4:2:0
Битовая глубина : 8 бит
Тип развёртки : Прогрессивная
Бит/(Пиксели*Кадры) : 0.537
Размер потока : 3,46 Гбайт (91%)
Заголовок : Haunted. Season 01 Episode 07 "A Three Hour Tour"
Библиотека кодирования : x264 core 140 r2377 1ca7bb9
Настройки программы : cabac=1 / ref=9 / deblock=1:-3:-3 / analyse=0x3:0x133 / me=umh / subme=10 / psy=1 / psy_rd=1.00:0.00 / mixed_ref=1 / me_range=32 / chroma_me=1 / trellis=2 / 8x8dct=1 / cqm=0 / deadzone=21,11 / fast_pskip=1 / chroma_qp_offset=-2 / threads=16 / lookahead_threads=2 / sliced_threads=0 / nr=0 / decimate=1 / interlaced=0 / bluray_compat=0 / constrained_intra=0 / bframes=7 / b_pyramid=2 / b_adapt=2 / b_bias=0 / direct=3 / weightb=1 / open_gop=0 / weightp=2 / keyint=250 / keyint_min=23 / scenecut=40 / intra_refresh=0 / rc_lookahead=40 / rc=crf / mbtree=0 / crf=16.0 / qcomp=0.65 / qpmin=0 / qpmax=40 / qpstep=4 / vbv_maxrate=50000 / vbv_bufsize=50000 / crf_max=0.0 / nal_hrd=none / filler=0 / ip_ratio=1.25 / pb_ratio=1.25 / aq=1:0.60
Язык : English
Default : Да
Forced : Нет

Аудио #1
Идентификатор : 2
Формат : AC-3
Формат/Информация : Audio Coding 3
Расширение режима : CM (complete main)
Параметр Endianness формата : Big
Идентификатор кодека : A_AC3
Продолжительность : 40 м.
Вид битрейта : Постоянный
Битрейт : 192 Кбит/сек
Каналы : 2 канала
Расположение каналов : Front: L R
Частота : 48,0 КГц
Битовая глубина : 16 бит
Метод сжатия : С потерями
Размер потока : 55,0 Мбайт (1%)
Заголовок : AC3 2.0 @ 192 kbps - фирма «СВ-Кадр», СТС
Язык : Russian
Default : Да
Forced : Нет

Аудио #2
Идентификатор : 3
Формат : AC-3
Формат/Информация : Audio Coding 3
Расширение режима : CM (complete main)
Параметр Endianness формата : Big
Идентификатор кодека : A_AC3
Продолжительность : 40 м.
Вид битрейта : Постоянный
Битрейт : 192 Кбит/сек
Каналы : 2 канала
Расположение каналов : Front: L R
Частота : 48,0 КГц
Битовая глубина : 16 бит
Метод сжатия : С потерями
Размер потока : 55,0 Мбайт (1%)
Заголовок : AC3 2.0 @ 192 kbps - студия «Селена Интернешнл», ТВ3
Язык : Russian
Default : Нет
Forced : Нет

Аудио #3
Идентификатор : 4
Формат : AC-3
Формат/Информация : Audio Coding 3
Расширение режима : CM (complete main)
Параметр Endianness формата : Big
Идентификатор кодека : A_AC3
Продолжительность : 40 м.
Вид битрейта : Постоянный
Битрейт : 640 Кбит/сек
Каналы : 6 каналов
Расположение каналов : Front: L C R, Side: L R, LFE
Частота : 48,0 КГц
Битовая глубина : 16 бит
Метод сжатия : С потерями
Размер потока : 183 Мбайт (5%)
Заголовок : AC3 5.1 @ 640 kbps
Язык : English
Default : Нет
Forced : Нет

Текст
Идентификатор : 5
Формат : UTF-8
Идентификатор кодека : S_TEXT/UTF8
Идентификатор кодека/Информация : UTF-8 Plain Text
Язык : German
Default : Нет
Forced : Нет

Меню
00:00:00.000 : en:00:00:00.000
00:09:22.600 : en:00:09:22.600
00:20:14.440 : en:00:20:14.440
00:33:34.480 : en:00:33:34.480

Source ---------- Encode CRF 16 ----------- Scene ---------- HDTV DON








Source ---------- Encode CRF 16










Скачать Говорящий.с.призраками.Haunted.(сезон.01).(Майкл.Раймер.Рик.Уоллес.Билл.Л.Нортон).[2002.детектив.ужасы.драма.мистика.триллер.BDRip].[720p].2x[MVO].torrent без регистрации
Золото ЗОЛОТАЯ РАЗДАЧА! СКАЧАННОЕ НЕ ЗАСЧИТЫВАЕТСЯ! Золото
Дата: Зарегистрирован   [ Тип: внутренний ] Как тут cкачать?
MAGNET ссылка
MAGNET ссылка


Скачать .torrent

50 KB

Статус: проверено DHT
Скачан: торрент - 143 раз, раздача полностью - 12 раз
Размер: 38,52 GB
Оценка:  4,5 (Голосов: 2)
Поблагодарили: 4
Поделиться ссылкой на эту раздачу с друзьями:
В контактеFacebookОдноклассникиTwitterLivejournalМой МирLiveinternet
 

 
Показать сообщения:    


Вы не можете начинать темы
Вы не можете отвечать на сообщения
Вы не можете редактировать свои сообщения
Вы не можете удалять свои сообщения
Вы не можете голосовать в опросах
Вы не можете прикреплять файлы к сообщениям
Вы можете скачивать файлы