Loading...
Error

Скачать Набережная туманов / Le quai des brumes (Марсель Карне) [1938, триллер, драма, мелодрама, криминал, BDRip-AVC] [Dub]+[MVO]x2+[Sub] торрент без регистрации

 
Статистика раздачи
Размер:  2,08 GB   |    Скачан:  131 раз
Сидов:  1  [  0 KB/s  ]  
 
Автор Сообщение

Marsianka

[] 

Информация о фильме
Название: Набережная туманов
Оригинальное название: Le quai des brumes
Год выхода: 1938
Жанр: триллер, драма, мелодрама, криминал
Режиссер: Марсель Карне
В ролях: Жан Габен, Мишель Симон, Мишель Морган, Пьер Брассёр, Эдуар Дельмон, Раймон Эмо, Робер Ле Виган, Рене Женен, Марсель Перес

О фильме:
Солдат колониальных войск Жан (Габен) приезжает в Гавр, надеясь сесть на корабль и уплыть далеко, далеко для этого у него есть причины, точно в фильме не указанные. Он знакомится с прекрасной девушкой Нелли (Морган) и между ними возникает любовь с первого взгляда. Сильный, сдержанный и немногословный Жан может и хулигана проучить, и вести себя с достоинством и гордостью парижанина. Ему везет он получает в подарок и гражданскую одежду, и паспорт; корабельный врач предлагает ему место в своей каюте, но пощечины, выданные публично местному молодому бандиту, обусловили печальный конец этой романтической истории. Жан не уплыл в далекую Венесуэлу, куда позже должна была приехать Нелли трагическое стечение обстоятельств, судьба оборвали минорную ноту, повисшую над набережной туманов. Как же приятно посмотреть такое кино, позабыв о компьютерных спецэффектах, взрывах и лакированных пейзажах. Черно-белая поэзия кинематографа будет жить вечно. Фильм снят по мотивам романа Пьера Мак Орлана, знаменитого романтика и экспрессиониста начала XX века.



Страна: Франция
Продолжительность: 01:32:19
Перевод: Дублированный, профессиональный многоголосый
Субтитры: Английские
Дата релиза: 20.12.2013

Файл
Кодек: H.264
Качество: BDRip (AVC)
Видео: MPEG-4 AVC, 2655 Кбит/с, 784x576
Аудио 1: Русский (AC3, 2 ch, 192 Кбит/с) - Дублированный (к/с им. М.Горького)
Аудио 2: Русский (AC3, 2 ch, 192 Кбит/с) - Профессиональный многоголосый (Film Prestige)
Аудио 3: Русский (AC3, 2 ch, 192 Кбит/с) - Профессиональный многоголосый (DVD Магия)
Общее
Уникальный идентификатор : 225770388767815957223469160120953316301 (0xA9D9CB94167133DA9D826500A36FA3CD)
Полное имя : E:Naberezhnaja.tumanov.1938.x264.BDRip.(AVC).ExKinoRay.mkv
Формат : Matroska
Размер файла : 2,08 Гбайт
Продолжительность : 1 ч. 32 м.
Общий поток : 3232 Кбит/сек
Название фильма : Naberezhnaja.tumanov.1938.x264.BDRip.(AVC).ExKinoRay
Дата кодирования : UTC 2013-12-20 19:28:43
Программа кодирования : mkvmerge v4.0.0 ('The Stars were mine') сборка от Jun 6 2010 16:18:42
Библиотека кодирования : libebml v1.0.0 + libmatroska v1.0.0

Видео
Идентификатор : 1
Формат : AVC
Формат/Информация : Advanced Video Codec
Профиль формата : High@L4.1
Параметр CABAC формата : Да
Параметр ReFrames формата : 8 кадров
Идентификатор кодека : V_MPEG4/ISO/AVC
Продолжительность : 1 ч. 32 м.
Битрейт : 2655 Кбит/сек
Ширина : 784 пикс.
Высота : 576 пикс.
Соотношение сторон : 4:3
Частота кадров : 24,000 кадр/сек
Цветовое пространство : YUV
Подвыборка цветности : 4:2:0
Битовая глубина : 8 бит
Тип развёртки : Прогрессивная
Бит/(Пиксели*Кадры) : 0.245
Размер потока : 1,67 Гбайт (80%)
Заголовок : Rip by Enigma-Vladislav71
Библиотека кодирования : x264 core 125 r2208 d9d2288
Настройки программы : cabac=1 / ref=8 / deblock=1:-2:-2 / analyse=0x3:0x133 / me=umh / subme=11 / psy=1 / psy_rd=1.00:0.00 / mixed_ref=1 / me_range=48 / chroma_me=1 / trellis=2 / 8x8dct=1 / cqm=0 / deadzone=21,11 / fast_pskip=0 / chroma_qp_offset=-2 / threads=3 / lookahead_threads=1 / sliced_threads=0 / nr=0 / decimate=0 / interlaced=0 / bluray_compat=0 / constrained_intra=0 / bframes=8 / b_pyramid=2 / b_adapt=2 / b_bias=0 / direct=3 / weightb=1 / open_gop=0 / weightp=2 / keyint=240 / keyint_min=23 / scenecut=40 / intra_refresh=0 / rc=2pass / mbtree=0 / bitrate=2655 / ratetol=1.0 / qcomp=0.60 / qpmin=10 / qpmax=51 / qpstep=4 / cplxblur=20.0 / qblur=0.5 / ip_ratio=1.40 / pb_ratio=1.30 / aq=1:1.00
Язык : English

Аудио #1
Идентификатор : 2
Формат : AC-3
Формат/Информация : Audio Coding 3
Расширение режима : CM (complete main)
Идентификатор кодека : A_AC3
Продолжительность : 1 ч. 32 м.
Вид битрейта : Постоянный
Битрейт : 192 Кбит/сек
Каналы : 2 канала
Расположение каналов : Front: L R
Частота : 48,0 КГц
Битовая глубина : 16 бит
Метод сжатия : С потерями
Размер потока : 127 Мбайт (6%)
Заголовок : Дублированный (к/с им. М.Горького)
Язык : Russian

Аудио #2
Идентификатор : 3
Формат : AC-3
Формат/Информация : Audio Coding 3
Расширение режима : CM (complete main)
Идентификатор кодека : A_AC3
Продолжительность : 1 ч. 32 м.
Вид битрейта : Постоянный
Битрейт : 192 Кбит/сек
Каналы : 2 канала
Расположение каналов : Front: L R
Частота : 48,0 КГц
Битовая глубина : 16 бит
Метод сжатия : С потерями
Размер потока : 127 Мбайт (6%)
Заголовок : профессиональный многоголосый (Film Prestige)
Язык : Russian

Аудио #3
Идентификатор : 4
Формат : AC-3
Формат/Информация : Audio Coding 3
Расширение режима : CM (complete main)
Идентификатор кодека : A_AC3
Продолжительность : 1 ч. 32 м.
Вид битрейта : Постоянный
Битрейт : 192 Кбит/сек
Каналы : 2 канала
Расположение каналов : Front: L R
Частота : 48,0 КГц
Битовая глубина : 16 бит
Метод сжатия : С потерями
Размер потока : 127 Мбайт (6%)
Заголовок : профессиональный многоголосый (DVD Магия)
Язык : Russian

Текст
Идентификатор : 5
Формат : UTF-8
Идентификатор кодека : S_TEXT/UTF8
Идентификатор кодека/Информация : UTF-8 Plain Text
Язык : English
Релиз от:

Авторы релиза:



Скачать Набережная.туманов.Le.quai.des.brumes.(Марсель.Карне).[1938.триллер.драма.мелодрама.криминал.BDRip-AVC].[Dub]+[MVO]x2+[Sub].torrent без регистрации
Золото ЗОЛОТАЯ РАЗДАЧА! СКАЧАННОЕ НЕ ЗАСЧИТЫВАЕТСЯ! Золото
Дата: Зарегистрирован   [ Тип: внутренний ] Как тут cкачать?
MAGNET ссылка
MAGNET ссылка


Скачать .torrent

11 KB

Статус: проверено DHT
Скачан: торрент - 131 раз, раздача полностью - 5 раз
Размер: 2,08 GB
Оценка:  - (Голосов: 0)
Поблагодарили: 1
Поделиться ссылкой на эту раздачу с друзьями:
В контактеFacebookОдноклассникиTwitterLivejournalМой МирLiveinternet
 

 
Показать сообщения:    


Вы не можете начинать темы
Вы не можете отвечать на сообщения
Вы не можете редактировать свои сообщения
Вы не можете удалять свои сообщения
Вы не можете голосовать в опросах
Вы не можете прикреплять файлы к сообщениям
Вы можете скачивать файлы