Loading...
Error

Скачать Нокдаун / Cinderella Man (Рон Ховард) [2005, драма, спорт, биография, BDRip-AVC] [Dub]+[DVO]+[AVO]+[MVO]+[Оригинал]+[Sub]x2 торрент без регистрации

 
Статистика раздачи
Размер:  4,78 GB   |    Скачан:  128 раз
Сидов:  1  [  0 KB/s  ]  
 
Автор Сообщение

Marsianka

[] 

Информация о фильме
Название: Нокдаун
Оригинальное название: Cinderella Man
Год выхода: 2005
Жанр: драма, спорт, биография
Режиссер: Рон Ховард
В ролях: Расселл Кроу, Рене Зеллвегер, Розмари ДеУитт, Линда Кэш, Николас Кэмпбелл, Джин Пирц, Чак Шамата, Рон Канада, Пол Джаматти, Крэйг Бирко, Пэдди Консидайн, Брюс МакГилл, Дэвид Хубанд, Коннор Прайс, Эриель Уоллер, Патрик Луис

О фильме:Потерпев несколько поражений кряду, подававший надежды боксер-тяжеловес Джим Брэддок вынужден бросить спорт. Во времена Великой депрессии Брэддок берется за любую работу, чтобы прокормить свою жену Мэй и детей. При этом он все еще надеется вернуться на ринг. И однажды ему предоставляется такой шанс. В последнюю минуту он заменяет другого боксера и выходит на поединок с претендентом на титул чемпиона мира. К всеобщему изумлению, Брэддок побеждает уже в третьем раунде. Несмотря на то, что он весит меньше своих соперников и к тому же страдает от многочисленных травм, Джим продолжает драться и выигрывать. Апофеозом же его спортивной карьеры становится поединок с чемпионом мира Максом Баэром, убившим на ринге двух человек.



Страна: США
Студия: Imagine Entertainment, Miramax Films, Parkway Productions
Продолжительность: 02:24:22
Перевод: Дублированный + профессиональный двухголосый + авторский одноголосый (Ю. Немахов) + украинский + оригинал

Файл
Кодек: MPEG-4 AVC
Качество: BDRip-AVC
Видео: 2500 Кбит/с, 1024х436, 23.976 кадр/с
Звук:
Аудио #1: Русский (AC3, 6 ch, 448 Кбит/с) / Дублированный
Аудио #2: Русский (AC3, 6 ch, 448 Кбит/с) / Профессиональный двухголосый (Tycoon)
Аудио #3: Русский (AC3, 6 ch, 448 Кбит/с) / Авторский одноголосый (Ю. Немахов)
Аудио #4: Украинский (AC3, 6 ch, 448 Кбит/с) / Профессиональный многоголосый
Аудио #5: Английский (AC3, 6 ch, 448 Кбит/с)
Субтитры: Русские (два вида), английские
Семпл
Общее
Уникальный идентификатор : 231834054130170707478166213638474659301 (0xAE699D5CD5BE61A2A2E5117D08B375E5)
Полное имя : F:3Films FРелизыNokdaun.2005.x264.BDRip.AVC.MediaClub.mkv
Формат : Matroska
Версия формата : Version 2
Размер файла : 4,78 Гбайт
Продолжительность : 2 ч. 24 м.
Общий поток : 4741 Кбит/сек
Название фильма : -= MediaClub =- rip by Lefevr
Дата кодирования : UTC 2013-12-20 01:08:47
Программа кодирования : mkvmerge v5.4.0 ('Piper') built on Mar 10 2012 13:34:39
Библиотека кодирования : libebml v1.2.3 + libmatroska v1.3.0

Видео
Идентификатор : 1
Формат : AVC
Формат/Информация : Advanced Video Codec
Профиль формата : High@L4.1
Параметр CABAC формата : Да
Параметр ReFrames формата : 9 кадров
Идентификатор кодека : V_MPEG4/ISO/AVC
Продолжительность : 2 ч. 24 м.
Битрейт : 2500 Кбит/сек
Ширина : 1024 пикселя
Высота : 436 пикселей
Соотношение сторон : 2,35:1
Режим частоты кадров : Постоянный
Частота кадров : 23,976 кадра/сек
Цветовое пространство : YUV
Субдискретизация насыщенности : 4:2:0
Битовая глубина : 8 бит
Тип развёртки : Прогрессивная
Бит/(Пиксели*Кадры) : 0.234
Размер потока : 2,43 Гбайт (51%)
Заголовок : Nokdaun.2005.x264.BDRip.AVC.MediaClub
Библиотека кодирования : x264 core 130 r2273 b3065e6
Настройки программы : cabac=1 / ref=9 / deblock=1:-3:-2 / analyse=0x3:0x133 / me=umh / subme=11 / psy=1 / psy_rd=1.00:0.20 / mixed_ref=1 / me_range=48 / chroma_me=1 / trellis=2 / 8x8dct=1 / cqm=0 / deadzone=21,11 / fast_pskip=0 / chroma_qp_offset=-3 / threads=6 / lookahead_threads=1 / sliced_threads=0 / nr=0 / decimate=0 / interlaced=0 / bluray_compat=0 / constrained_intra=0 / bframes=8 / b_pyramid=2 / b_adapt=2 / b_bias=0 / direct=3 / weightb=1 / open_gop=0 / weightp=2 / keyint=240 / keyint_min=23 / scenecut=40 / intra_refresh=0 / rc=2pass / mbtree=0 / bitrate=2500 / ratetol=1.0 / qcomp=0.60 / qpmin=0 / qpmax=69 / qpstep=4 / cplxblur=20.0 / qblur=0.5 / ip_ratio=1.40 / pb_ratio=1.30 / aq=1:1.00
Язык : English
Default : Да
Forced : Нет

Аудио #1
Идентификатор : 2
Формат : AC-3
Формат/Информация : Audio Coding 3
Расширение режима : CM (complete main)
Параметр Endianness формата : Big
Идентификатор кодека : A_AC3
Продолжительность : 2 ч. 24 м.
Вид битрейта : Постоянный
Битрейт : 448 Кбит/сек
Каналы : 6 каналов
Расположение каналов : Front: L C R, Side: L R, LFE
Частота : 48,0 КГц
Битовая глубина : 16 бит
Метод сжатия : С потерями
Размер потока : 463 Мбайт (9%)
Заголовок : TRACK_01_DUB_RUS
Язык : Russian
Default : Да
Forced : Да

Аудио #2
Идентификатор : 3
Формат : AC-3
Формат/Информация : Audio Coding 3
Расширение режима : CM (complete main)
Параметр Endianness формата : Big
Идентификатор кодека : A_AC3
Продолжительность : 2 ч. 24 м.
Вид битрейта : Постоянный
Битрейт : 448 Кбит/сек
Каналы : 6 каналов
Расположение каналов : Front: L C R, Side: L R, LFE
Частота : 48,0 КГц
Битовая глубина : 16 бит
Метод сжатия : С потерями
Размер потока : 463 Мбайт (9%)
Заголовок : TRACK_02_DVO_RUS_Tycoon
Язык : Russian
Default : Нет
Forced : Нет

Аудио #3
Идентификатор : 4
Формат : AC-3
Формат/Информация : Audio Coding 3
Расширение режима : CM (complete main)
Параметр Endianness формата : Big
Идентификатор кодека : A_AC3
Продолжительность : 2 ч. 24 м.
Вид битрейта : Постоянный
Битрейт : 448 Кбит/сек
Каналы : 6 каналов
Расположение каналов : Front: L C R, Side: L R, LFE
Частота : 48,0 КГц
Битовая глубина : 16 бит
Метод сжатия : С потерями
Размер потока : 463 Мбайт (9%)
Заголовок : TRACK_03_AVO_RUS_Nemahov
Язык : Russian
Default : Нет
Forced : Нет

Аудио #4
Идентификатор : 5
Формат : AC-3
Формат/Информация : Audio Coding 3
Расширение режима : CM (complete main)
Параметр Endianness формата : Big
Идентификатор кодека : A_AC3
Продолжительность : 2 ч. 24 м.
Вид битрейта : Постоянный
Битрейт : 448 Кбит/сек
Каналы : 6 каналов
Расположение каналов : Front: L C R, Side: L R, LFE
Частота : 48,0 КГц
Битовая глубина : 16 бит
Метод сжатия : С потерями
Размер потока : 463 Мбайт (9%)
Заголовок : TRACK_04_MVO_UKR
Язык : Ukrainian
Default : Нет
Forced : Нет

Аудио #5
Идентификатор : 6
Формат : AC-3
Формат/Информация : Audio Coding 3
Расширение режима : CM (complete main)
Параметр Endianness формата : Big
Идентификатор кодека : A_AC3
Продолжительность : 2 ч. 24 м.
Вид битрейта : Постоянный
Битрейт : 448 Кбит/сек
Каналы : 6 каналов
Расположение каналов : Front: L C R, Side: L R, LFE
Частота : 48,0 КГц
Битовая глубина : 16 бит
Метод сжатия : С потерями
Размер потока : 463 Мбайт (9%)
Заголовок : TRACK_05_ORIGINAL_ENG
Язык : English
Default : Нет
Forced : Нет

Текст #1
Идентификатор : 7
Формат : UTF-8
Идентификатор кодека : S_TEXT/UTF8
Идентификатор кодека/Информация : UTF-8 Plain Text
Заголовок : TEXT_01_SUB_RUS
Язык : Russian
Default : Нет
Forced : Нет

Текст #2
Идентификатор : 8
Формат : UTF-8
Идентификатор кодека : S_TEXT/UTF8
Идентификатор кодека/Информация : UTF-8 Plain Text
Заголовок : TEXT_02_SUB_RUS_Tycoon
Язык : Russian
Default : Нет
Forced : Нет

Текст #3
Идентификатор : 9
Формат : UTF-8
Идентификатор кодека : S_TEXT/UTF8
Идентификатор кодека/Информация : UTF-8 Plain Text
Заголовок : TEXT_03_SUB_ENG
Язык : English
Default : Нет
Forced : Нет

Меню
00:00:00.000 : en:The Next Champ
00:08:00.021 : en:Past Due
00:16:23.023 : en:Washed-Up
00:23:22.818 : en:Decommisioned
00:28:37.382 : en:Cut Off
00:38:53.039 : en:Emergency Relief
00:44:00.179 : en:One Last Chance
00:49:00.854 : en:Going in Hungry
00:58:43.686 : en:Sizing Up the Champ
01:02:53.186 : en:Back to Even
01:10:40.694 : en:Getting Serious
01:14:48.275 : en:Don't Back Down
01:22:51.299 : en:Count Your Blessings
01:28:17.000 : en:Know What You're Fighting For
01:36:17.938 : en:Giving Hope
01:40:44.163 : en:Find a Way Out
01:44:23.799 : en:Tremendous Underdog
01:54:34.742 : en:The Main Event
02:04:41.807 : en:Championship Round
02:17:43.380 : en:End Credits
x264 [info]: frame I:1709 Avg QP:14.21 size: 60000
x264 [info]: frame P:50521 Avg QP:17.11 size: 23929
x264 [info]: frame B:155434 Avg QP:18.28 size: 8964
Сохранены и подписаны оригинальные чаптеры как на Blu-ray.

За помощь в подготовке релиза спасибо Константину - Painter
За исходник спасибо Fon_Perez от HDClub
Релиз от:

Автор рипа:



Скачать Нокдаун.Cinderella.Man.(Рон.Ховард).[2005.драма.спорт.биография.BDRip-AVC].[Dub]+[DVO]+[AVO]+[MVO]+[Оригинал]+[Sub]x2.torrent без регистрации
Золото ЗОЛОТАЯ РАЗДАЧА! СКАЧАННОЕ НЕ ЗАСЧИТЫВАЕТСЯ! Золото
Дата: Зарегистрирован   [ Тип: внутренний ] Как тут cкачать?
MAGNET ссылка
MAGNET ссылка


Скачать .torrent

24 KB

Статус: проверено DHT
Скачан: торрент - 128 раз, раздача полностью - 209 раз
Размер: 4,78 GB
Оценка:  - (Голосов: 0)
Поблагодарили: 3
Поделиться ссылкой на эту раздачу с друзьями:
В контактеFacebookОдноклассникиTwitterLivejournalМой МирLiveinternet
 

 
Показать сообщения:    


Вы не можете начинать темы
Вы не можете отвечать на сообщения
Вы не можете редактировать свои сообщения
Вы не можете удалять свои сообщения
Вы не можете голосовать в опросах
Вы не можете прикреплять файлы к сообщениям
Вы можете скачивать файлы