Loading...
Error

Скачать Стриптиз / Striptease (Эндрю Бергмэн) [1996, триллер, драма, криминал, BDRip-AVC] [MVO] торрент без регистрации

 
Статистика раздачи
Размер:  4,32 GB   |    Скачан:  101 раз
Сидов:  1  [  0 KB/s  ]  
 
Автор Сообщение

Marsianka

[] 

Название: Стриптиз
Оригинальное название: Striptease
Год выхода: 1996
Жанр: триллер, драма, криминал
Выпущено: США / Castle Rock Entertainment
Режиссер: Эндрю Бергмэн
В ролях: Деми Мур, Арманд Ассанте, Винг Рэймс, Роберт Патрик, Пол Гилфойл, Бёрт Рейнолдс, Джерри Грэйсон, Роберт Стэнтон, Стюарт Пэнкин, Дина Спайби

О фильме: Эрин Гран женщина, которая танцует стриптиз, чтобы решить серьезную финансовую проблему. Но все осложняется, когда сластолюбивый конгрессмен теряет из-за нее голову. Деньги, шантаж, убийство у законодателя в руках много способов получить желаемое, но против Эрин он бессилен. Она разоблачается, чтобы выжить. Но подлинное разоблачение грозит политикану



Качество: BDRip
Видео: MPEG-4 AVC, 5121 Кбит/с, 1600x900, 25.000 кадр/с
Аудио: Русский (AAC,2 ch, 152 Кбит/с) / Профессиональный многоголосый
Продолжительность: 01:57:10

General
Complete name : Striptease.1996_mvo.mp4
Format : MPEG-4
Format profile : Base Media
Codec ID : isom
File size : 4.32 GiB
Duration : 1h 57mn
Overall bit rate mode : Variable
Overall bit rate : 5 279 Kbps
Writing application : Lavf54.63.104
Video #1
ID : 1
Format : AVC
Format/Info : Advanced Video Codec
Format profile : Main@L4.0
Format settings, CABAC : Yes
Format settings, ReFrames : 1 frame
Format settings, GOP : M=1, N=15
Codec ID : avc1
Codec ID/Info : Advanced Video Coding
Duration : 1h 57mn
Bit rate mode : Variable
Bit rate : 5 121 Kbps
Maximum bit rate : 15.4 Mbps
Width : 1 600 pixels
Height : 900 pixels
Display aspect ratio : 16:9
Frame rate mode : Constant
Frame rate : 25.000 fps
Color space : YUV
Chroma subsampling : 4:2:0
Bit depth : 8 bits
Scan type : Progressive
Bits/(Pixel*Frame) : 0.142
Stream size : 4.19 GiB (97%)
Audio #2
ID : 2
Format : AAC
Format/Info : Advanced Audio Codec
Format profile : LC
Codec ID : 40
Duration : 1h 57mn
Duration_FirstFrame : 70ms
Bit rate mode : Variable
Bit rate : 152 Kbps
Maximum bit rate : 176 Kbps
Channel(s) : 2 channels
Channel positions : Front: L R
Sampling rate : 44.1 KHz
Compression mode : Lossy
Stream size : 127 MiB (3%)



Скачать Стриптиз.Striptease.(Эндрю.Бергмэн).[1996.триллер.драма.криминал.BDRip-AVC].[MVO].torrent без регистрации
Золото ЗОЛОТАЯ РАЗДАЧА! СКАЧАННОЕ НЕ ЗАСЧИТЫВАЕТСЯ! Золото
Дата: Зарегистрирован   [ Тип: внутренний ] Как тут cкачать?
MAGNET ссылка
MAGNET ссылка


Скачать .torrent

22 KB

Статус: проверено DHT
Скачан: торрент - 101 раз, раздача полностью - 2 раз
Размер: 4,32 GB
Оценка:  - (Голосов: 0)
Поблагодарили: 3
Поделиться ссылкой на эту раздачу с друзьями:
В контактеFacebookОдноклассникиTwitterLivejournalМой МирLiveinternet
 

 
Показать сообщения:    


Вы не можете начинать темы
Вы не можете отвечать на сообщения
Вы не можете редактировать свои сообщения
Вы не можете удалять свои сообщения
Вы не можете голосовать в опросах
Вы не можете прикреплять файлы к сообщениям
Вы можете скачивать файлы