Loading...
Error

Скачать Туз / Asso (Франко Кастеллано, Джузеппе Моччиа) [1981, комедия, DVDRip-AVC] [MVO]+[Оригинал] торрент без регистрации

 
Статистика раздачи
Размер:  1,46 GB   |    Скачан:  122 раза
Сидов:  22  [  0 KB/s  ]  
 
Автор Сообщение

Marsianka

[] 

Страна: Италия
Производство: Intercapital
Жанр: комедия
Год выпуска: 1981
Продолжительность: 01:30:50

Перевод: Профессиональный (многоголосый закадровый)
Оригинальная аудиодорожка: итальянский
Cубтитры: нет

Режиссер: Франко Кастеллано / Franco Castellano, Джузеппе Моччиа / Giuseppe Moccia

В ролях:
Адриано Челентано (Adriano Celentano), Сильва Кошина (Sylva Koscina), Эдуидж Фенек (Edwige Fenech), Ренато Сальватори (Renato Salvatori), Пиппо Сантонастасо (Pippo Santonastaso)...

Описание:
Профессиональный карточный шулер по кличке Туз накануне свадьбы объявляет о своем решении завязать. Но неожиданно оказывается втянутым в крупную игру с Марсельцем. Молодая жена отпускает его на эту игру. Отчаянно блефуя, он срывает банк, но игра продолжается.
На него начинается охота и его убивает наемный убийца, после чего Туз превращается в привидение, которое не может видеть никто, кроме его жены. Обретя таким трагическим образом новые возможности, он старается пристроить свою вдову и отомстить

Исходник: DVD5 R5
Тип релиза: DVDRip-AVC
Контейнер: MKV

Видео: 672->962x570 (1,686:1), 25 fps, H264 ~ 1908 kbps avg, 0.199 bit/pixel
Аудио: 48 kHz, Dolby Digital AC3 2.0, 192 kbps Русский
Аудио: 48 kHz, Dolby Digital AC3 2.0, 192 kbps Итальянский

Общее
Полное имя : Tuz.1981.DVDRip-AVC_[New-team]_by_AVP_Studio.mkv
Формат : Matroska
Версия формата : Version 4 / Version 2
Размер файла : 1,46 Гбайт
Продолжительность : 1 ч. 30 м.
Общий поток : 2294 Кбит/сек
Название фильма : Tuz.1981.DVDRip-AVC_[New-team]_by_AVP_Studio
Дата кодирования : UTC 2013-12-22 20:19:25
Программа кодирования : mkvmerge v6.6.0 ('The Edge Of The In Between') built on Dec 1 2013 17:55:00
Библиотека кодирования : libebml v1.3.0 + libmatroska v1.4.1

Видео
Идентификатор : 1
Формат : AVC
Формат/Информация : Advanced Video Codec
Профиль формата :
High@L4.1
Параметр CABAC формата : Да
Параметр ReFrames формата : 6 кадров
Идентификатор кодека : V_MPEG4/ISO/AVC
Продолжительность : 1 ч. 30 м.
Битрейт : 1908 Кбит/сек
Ширина : 672 пикселя
Высота : 570 пикселей
Соотношение сторон : 1,686
Соотношение сторон в оригинале : 1,687
Частота кадров : 25,000 кадров/сек
Цветовое пространство : YUV
Субдискретизация насыщенности : 4:2:0
Битовая глубина : 8 бит
Тип развёртки : Прогрессивная
Бит/(Пиксели*Кадры) : 0.199
Размер потока : 1,18 Гбайт (81%)
Заголовок : Источник DVD
Библиотека кодирования : x264 core 138 r2356 a1d3d17
Настройки программы : cabac=1 / ref=6 / deblock=1:-2:-1 / analyse=0x3:0x113 / me=umh / subme=10 / psy=1 / psy_rd=1.00:0.05 / mixed_ref=1 / me_range=32 / chroma_me=1 / trellis=2 / 8x8dct=1 / cqm=0 / deadzone=21,11 / fast_pskip=0 / chroma_qp_offset=-3 / threads=3 / lookahead_threads=1 / sliced_threads=0 / nr=0 / decimate=0 / interlaced=0 / bluray_compat=0 / constrained_intra=0 / bframes=8 / b_pyramid=2 / b_adapt=2 / b_bias=0 / direct=3 / weightb=1 / open_gop=0 / weightp=2 / keyint=250 / keyint_min=25 / scenecut=40 / intra_refresh=0 / rc=2pass / mbtree=0 / bitrate=1908 / ratetol=1.0 / qcomp=0.60 / qpmin=0 / qpmax=69 / qpstep=4 / cplxblur=20.0 / qblur=0.5 / ip_ratio=1.40 / pb_ratio=1.30 / aq=1:1.00
Язык : Italian
Default : Да
Forced : Нет

Аудио #1
Идентификатор : 2
Формат : AC-3
Формат/Информация : Audio Coding 3
Расширение режима : CM (complete main)
Идентификатор кодека : A_AC3
Продолжительность : 1 ч. 30 м.
Вид битрейта : Постоянный
Битрейт : 192 Кбит/сек
Каналы : 2 канала
Расположение каналов : Front: L R
Частота : 48,0 КГц
Битовая глубина : 16 бит
Метод сжатия : С потерями
Размер потока : 125 Мбайт (8%)
Заголовок : Источник DVD Dolby Digital 2,0 192 kbps
Язык : Russian
Default : Да
Forced : Нет

Аудио #2
Идентификатор : 3
Формат : AC-3
Формат/Информация : Audio Coding 3
Профиль формата : Dolby Digital
Расширение режима : CM (complete main)
Идентификатор кодека : A_AC3
Продолжительность : 1 ч. 30 м.
Вид битрейта : Постоянный
Битрейт : 192 Кбит/сек
Каналы : 2 канала
Расположение каналов : Front: L R
Частота : 48,0 КГц
Битовая глубина : 16 бит
Метод сжатия : С потерями
Размер потока : 125 Мбайт (8%)
Заголовок : Источник DVD Dolby Digital 2,0 192 kbps
Язык : Italian
Default : Нет
Forced : Нет

Меню
00:00:00.000 : ru:00:00:00.000000000
00:05:00.000 : :00:05:00.000000000
00:10:00.000 : :00:10:00.000000000
00:15:00.000 : :00:15:00.000000000
00:20:00.000 : :00:20:00.000000000
00:25:00.000 : :00:25:00.000000000
00:30:00.000 : :00:30:00.000000000
00:35:00.000 : :00:35:00.000000000
00:40:00.000 : :00:40:00.000000000
00:45:00.000 : :00:45:00.000000000
00:50:00.000 : :00:50:00.000000000
00:55:00.000 : :00:55:00.000000000
01:00:00.000 : :01:00:00.000000000
01:05:00.000 : :01:05:00.000000000
01:10:00.000 : :01:10:00.000000000
01:15:00.000 : :01:15:00.000000000
01:20:00.000 : :01:20:00.000000000
01:25:00.000 : :01:25:00.000000000

В начале фильма герой Челентано разъезжает на мотоцикле «Днепр» пр. СССР.
В сцене карточной игры Челентано, по собственному замыслу, намеренно копирует знаменитого в Италии героя Раджа Капура из фильма «Господин 420». Радж Капур, по признанию Челентано, с детства является его любимым актёром, и именно эту сцену он мечтал включить в фильм.
Фильм «Туз» стал седьмой работой Челентано с творческим дуэтом Кастеллано и Пиполо.



Скачать Туз.Asso.(Франко.Кастеллано.Джузеппе.Моччиа).[1981.комедия.DVDRip-AVC].[MVO]+[Оригинал].torrent без регистрации
Золото ЗОЛОТАЯ РАЗДАЧА! СКАЧАННОЕ НЕ ЗАСЧИТЫВАЕТСЯ! Золото
Дата: Зарегистрирован   [ Тип: внешний ] Как тут cкачать?
MAGNET ссылка
MAGNET ссылка


Скачать .torrent

15 KB

Статус: проверено DHT
Скачан: торрент - 122 раз, раздача полностью - 32 раз
Размер: 1,46 GB
Оценка:  5 (Голосов: 1)
Поблагодарили: 3
Поделиться ссылкой на эту раздачу с друзьями:
В контактеFacebookОдноклассникиTwitterLivejournalМой МирLiveinternet
 

 
Показать сообщения:    


Вы не можете начинать темы
Вы не можете отвечать на сообщения
Вы не можете редактировать свои сообщения
Вы не можете удалять свои сообщения
Вы не можете голосовать в опросах
Вы не можете прикреплять файлы к сообщениям
Вы можете скачивать файлы