Loading...
Error

Скачать Бегущий человек / The Running Man (Пол Майкл Глейзер) [1987, фантастика, боевик, BDRip] [AVO] (А.Гаврилов) + [AVO] (А.Марченко) торрент без регистрации

 
Статистика раздачи
Размер:  1,8 GB   |    Скачан:  122 раза
Сидов:  1  [  0 KB/s  ]  
 
Автор Сообщение

leon030982

[] 

Бегущий человек / The Running Man

Год выпуска: 1987
Страна: США
Жанр: фантастика, боевик
Продолжительность: 01:40:43
Перевод №1: Авторский (одноголосный, закадровый) А.Гаврилов
Перевод №2: Авторский (одноголосный, закадровый) А.Марченко
Cубтитры: нет

Режиссер: Пол Майкл Глейзер / Paul Michael Glaser

В ролях: Арнольд Шварценеггер, Мария Кончита Алонсо, Яфет Котто, Джим Браун, Джесси Вентура, Эрланд ван Лидт, Марвин Дж. МакИнтайр, Гас Ретвиш, Профессор Тору Танака, Мик Флитвуд и другие

Описание: К 2017 году излюбленным развлечением для жителей Америки, превратившейся в полувоенное государство, стало садистское телешоу «Бегущий человек», участники которого — невинные жертвы — не имели ни единого шанса на выживание. Среди них оказался полицейский Бэн Ричардс (Арнольд Шварценеггер), отказавшийся расстрелять безоружную толпу голодных людей. Теперь вместе с собратьями по несчастью ему предстоит принять участие в безумной гонке со смертью, сразиться с непобедимыми монстрами — Профессором Крио, Бензопилой, Шаровой Молнией и Динамо, и отомстить бесчеловечному хозяину шоу...

Сатурн, 1988 год, победитель: Лучший актер второго плана (Ричард Даусон)

Качество видео: BDRip [Исх. Blu Ray]
Формат видео: AVI
Видео кодек: XviD
Аудио кодек: AC3
Видео: 720x400 (1.80:1), 25 fps, XviD build 64 ~1898 kbps avg, 0.26 bit/pixel
Аудио #1: 48 kHz, AC3 Dolby Digital, 3/2 (L,C,R,l,r) + LFE ch, ~448.00 kbps avg
Аудио #2: 48 kHz, AC3 Dolby Digital, 2/0 (L,R) ch, ~192.00 kbps avg
General
Complete name : E:\INTERNET\The Running Man.1987.BDRip.2x[AVO](Gavrilov, Mar4enko).avi
Format : AVI
Format/Info : Audio Video Interleave
File size : 1.80 GiB
Duration : 1h 40mn
Overall bit rate : 2 554 Kbps
Writing application : VirtualDubMod 1.5.10.3 (build 2550/release)
Writing library : VirtualDubMod build 2550/release

Video
ID : 0
Format : MPEG-4 Visual
Format profile : Advanced Simple@L5
Format settings, BVOP : 1
Format settings, QPel : No
Format settings, GMC : No warppoints
Format settings, Matrix : Default (H.263)
Codec ID : XVID
Codec ID/Hint : XviD
Duration : 1h 40mn
Bit rate : 1 900 Kbps
Width : 720 pixels
Height : 400 pixels
Display aspect ratio : 16:9
Frame rate : 25.000 fps
Color space : YUV
Chroma subsampling : 4:2:0
Bit depth : 8 bits
Scan type : Progressive
Compression mode : Lossy
Bits/(Pixel*Frame) : 0.264
Stream size : 1.34 GiB (74%)
Writing library : XviD 64

Audio #1
ID : 1
Format : AC-3
Format/Info : Audio Coding 3
Mode extension : CM (complete main)
Codec ID : 2000
Duration : 1h 40mn
Bit rate mode : Constant
Bit rate : 448 Kbps
Channel(s) : 6 channels
Channel positions : Front: L C R, Side: L R, LFE
Sampling rate : 48.0 KHz
Bit depth : 16 bits
Compression mode : Lossy
Stream size : 323 MiB (18%)
Alignment : Split accross interleaves
Interleave, duration : 40 ms (1.00 video frame)
Interleave, preload duration : 500 ms

Audio #2
ID : 2
Format : AC-3
Format/Info : Audio Coding 3
Mode extension : CM (complete main)
Codec ID : 2000
Duration : 1h 40mn
Bit rate mode : Constant
Bit rate : 192 Kbps
Channel(s) : 2 channels
Channel positions : Front: L R
Sampling rate : 48.0 KHz
Bit depth : 16 bits
Compression mode : Lossy
Stream size : 138 MiB (8%)
Alignment : Split accross interleaves
Interleave, duration : 40 ms (1.00 video frame)
Interleave, preload duration : 500 ms



Скачать Бегущий.человек.The.Running.Man.(Пол.Майкл.Глейзер).[1987.фантастика.боевик.BDRip].[AVO].(А.Гаврилов).+.[AVO].(А.Марченко).torrent без регистрации
Золото ЗОЛОТАЯ РАЗДАЧА! СКАЧАННОЕ НЕ ЗАСЧИТЫВАЕТСЯ! Золото
Дата: Зарегистрирован   [ Тип: внутренний ] Как тут cкачать?
MAGNET ссылка
MAGNET ссылка


Скачать .torrent

18 KB

Статус: проверено DHT
Скачан: торрент - 122 раз, раздача полностью - 18 раз
Размер: 1,8 GB
Оценка:  5 (Голосов: 1)
Поблагодарили: 1
Поделиться ссылкой на эту раздачу с друзьями:
В контактеFacebookОдноклассникиTwitterLivejournalМой МирLiveinternet
 

 
Показать сообщения:    


Вы не можете начинать темы
Вы не можете отвечать на сообщения
Вы не можете редактировать свои сообщения
Вы не можете удалять свои сообщения
Вы не можете голосовать в опросах
Вы не можете прикреплять файлы к сообщениям
Вы можете скачивать файлы