Loading...
Error

Скачать Загадочное убийство в Манхэттэне / Manhattan Murder Mystery (Вуди Аллен / Woody Allen) [1993, Комедия, криминал, детектив, DVDRip] [AVO] (Л.Володарский) торрент без регистрации

 
Статистика раздачи
Размер:  1,47 GB   |    Скачан:  104 раза

Полного источника не было: 26 минут

 
Автор Сообщение

leon030982

[] 

Загадочное убийство в Манхэттэне / Manhattan Murder Mystery



Год выпуска: 1993
Страна: США
Жанр: Комедия, криминал, детектив
Продолжительность: 01:47:31
Перевод: Авторский (одноголосый, закадровый) [Леонид Володарский]
Cубтитры: нет

Режиссер: Вуди Аллен / Woody Allen

В ролях: Вуди Аллен, Дайан Китон, Джерри Адлер, Линн Коэн, Рон Рифкин, Джой Бехар, Уильям Эдди, Джон Думэниан, Сильвия Каудерс, Ира Вилер

Описание: Ларри и Кэрол — обычная супружеская пара, которая ничем не отличается от тысяч других нью — йорских семей. Но неожиданно спокойное и размеренное течение жизни нарушается, когда умирает жена их соседа. На первый взгляд, в этом несчастьи нет ничего необычного. Однако наблюдательная Кэрол замечает, что вдовец не особенно скорбит об утрате.
Она начинает настоящее расследование, шаг за шагом приближаяськ разгадке. И когда новоиспеченной Агате Кристи кажется, что зловещая тайна вот — вот раскроется, она случайно узнает в окне проезжающего автобуса умершую женщину.




Качество видео: DVDRip
Формат видео: AVI
Видео кодек: XviD
Аудио кодек: AC3
Видео: 720x400 (1.80:1), 23.976 fps, XviD build 46 ~1756 kbps avg, 0.25 bit/pixel
Аудио: 48 kHz, AC3 Dolby Digital, 2/0 (L,R) ch, ~192 kbps

Релиз -
Фильм предоставил alenavova
Звуковая дорожка: оцифровка VHS alenavova (личный архив)
Синхронизация: vik19662007
Загадочное убийство в Манхэттэне - Manhattan Murder Mystery [by alenavova].avi
Format : AVI
Format/Info : Audio Video Interleave
File size : 1.47 GiB
Duration : 1h 47mn
Overall bit rate : 1 958 Kbps
Writing application : VirtualDubModRus 1.5.10.2 (build 2542/release)
Writing library : VirtualDubMod build 2542/release

Video
ID : 0
Format : MPEG-4 Visual
Format profile : Simple@L3
Format settings, BVOP : No
Format settings, QPel : No
Format settings, GMC : No warppoints
Format settings, Matrix : Default (H.263)
Codec ID : XVID
Codec ID/Hint : XviD
Duration : 1h 47mn
Bit rate : 1 757 Kbps
Width : 720 pixels
Height : 400 pixels
Display aspect ratio : 16:9
Frame rate : 23.976 fps
Color space : YUV
Chroma subsampling : 4:2:0
Bit depth : 8 bits
Scan type : Progressive
Compression mode : Lossy
Bits/(Pixel*Frame) : 0.254
Stream size : 1.32 GiB (90%)
Writing library : XviD 1.1.2 (UTC 2006-11-01)

Audio
ID : 1
Format : AC-3
Format/Info : Audio Coding 3
Mode extension : CM (complete main)
Format settings, Endianness : Big
Codec ID : 2000
Duration : 1h 47mn
Bit rate mode : Constant
Bit rate : 192 Kbps
Channel count : 2 channels
Channel positions : Front: L R
Sampling rate : 48.0 KHz
Bit depth : 16 bits
Compression mode : Lossy
Stream size : 148 MiB (10%)
Alignment : Split accross interleaves
Interleave, duration : 42 ms (1.00 video frame)
Interleave, preload duration : 500 ms



Скачать Загадочное.убийство.в.Манхэттэне.Manhattan.Murder.Mystery.(Вуди.Аллен.Woody.Allen).[1993.Комедия.криминал.детектив.DVDRip].[AVO].(Л.Володарский).torrent без регистрации
Золото ЗОЛОТАЯ РАЗДАЧА! СКАЧАННОЕ НЕ ЗАСЧИТЫВАЕТСЯ! Золото
Дата: Зарегистрирован   [ Тип: внутренний ] Как тут cкачать?
MAGNET ссылка
MAGNET ссылка


Скачать .torrent

15 KB

Статус: проверено DHT
Скачан: торрент - 104 раз, раздача полностью - 6 раз
Размер: 1,47 GB
Оценка:  5 (Голосов: 1)
Поблагодарили: 2
Поделиться ссылкой на эту раздачу с друзьями:
В контактеFacebookОдноклассникиTwitterLivejournalМой МирLiveinternet
 

 
Показать сообщения:    


Вы не можете начинать темы
Вы не можете отвечать на сообщения
Вы не можете редактировать свои сообщения
Вы не можете удалять свои сообщения
Вы не можете голосовать в опросах
Вы не можете прикреплять файлы к сообщениям
Вы можете скачивать файлы