Loading...
Error

Скачать Смерть скачет на коне / Смерть верхом на лошади / Death Rides a Horse / Da uomo a uomo (Джулио Петрони) [1967, боевик, вестерн, BDRip] [MVO]+[AVO]+[Оригинал] торрент без регистрации

 
Статистика раздачи
Размер:  2,04 GB   |    Скачан:  119 раз

Полного источника не было: 30 минут

 
Автор Сообщение

Marsianka

[] 

Информация о фильме
Название: Смерть скачет на коне / Смерть верхом на лошади
Оригинальное название: Death Rides a Horse / Da uomo a uomo
Год выхода: 1967
Жанр: боевик, вестерн
Режиссер: Джулио Петрони
В ролях: Ли Ван Клиф, Джон Филлип Лоу, Марио Брега, Энтони Доусон, Франко Бальдуччи, Бруно Кораццари, Феличита Фанни, Игнацио Леоне, Карло Пизакане

О фильме:
Бандиты убивают всех жителей ранчо. Всех, за исключением маленького мальчика. Прошло пятнадцать лет, мальчик вырос, но не оставил мечту наказать убийц. В это же время из тюрьмы освобождается Райан, один из участников нападения, преданный своими подельниками. Они встречаются объединяемые одной целью мстить.



Страна: Италия
Продолжительность: 1:54:57
Перевод: Профессиональный (многоголосый, эакадровый)|5-й канал|, Авторский одноголосый, Кузнецов

Файл
Кодек: XviD
Качество: BDRip
Видео: 720x304, 23.976 fps, 1936 kbps
Аудио 1 : AC3, 2 ch, 192 kbps............Профессиональный (многоголосый, эакадровый)|5-й канал|
Аудио 2 : AC3, 2 ch, 192 kbps............Авторский одноголосый, Кузнецов
Аудио 3 : AC3, 2 ch, 192 kbps............Оригинальная Eng.
Общее
Полное имя : Death.Rides.a.Horse.1967.BDRip.avi
Формат : AVI
Формат/Информация : Audio Video Interleave
Профиль формата : OpenDML
Размер файла : 2,04 Гбайт
Продолжительность : 1 ч. 54 м.
Общий поток : 2537 Кбит/сек
Программа кодирования : VirtualDubMod 1.5.10.2 (build 2542/release)
Библиотека кодирования : VirtualDubMod build 2542/release

Видео
Идентификатор : 0
Формат : MPEG-4 Visual
Профиль формата : Advanced Simple@L5
Параметр BVOP формата : 1
Параметр QPel формата : Нет
Параметр GMC формата : Без точки перехода
Параметр матрицы формата : Выборочная
Идентификатор кодека : XVID
Идентификатор кодека/Подсказка : XviD
Продолжительность : 1 ч. 54 м.
Битрейт : 1936 Кбит/сек
Ширина : 720 пикс.
Высота : 304 пикс.
Соотношение сторон : 2,35:1
Частота кадров : 23,976 кадр/сек
Цветовое пространство : YUV
Подвыборка цветности : 4:2:0
Битовая глубина : 8 бит
Тип развёртки : Прогрессивная
Метод сжатия : С потерями
Бит/(Пиксели*Кадры) : 0.369
Размер потока : 1,55 Гбайт (76%)
Библиотека кодирования : XviD 73

Аудио #1
Идентификатор : 1
Формат : AC-3
Формат/Информация : Audio Coding 3
Расширение режима : CM (complete main)
Идентификатор кодека : 2000
Продолжительность : 1 ч. 54 м.
Вид битрейта : Постоянный
Битрейт : 192 Кбит/сек
Канал(ы) : 2 канала(ов)
Расположение каналов : Front: L R
Частота : 48,0 КГц
Битовая глубина : 16 бит
Метод сжатия : С потерями
Размер потока : 158 Мбайт (8%)
Выравнивание : Разделение по промежуткам
Продолжительность промежутка : 42 мс. (1,00 видеокадр)
Время предзагрузки промежутка : 500 ms

Аудио #2
Идентификатор : 2
Формат : AC-3
Формат/Информация : Audio Coding 3
Расширение режима : CM (complete main)
Идентификатор кодека : 2000
Продолжительность : 1 ч. 54 м.
Вид битрейта : Постоянный
Битрейт : 192 Кбит/сек
Канал(ы) : 2 канала(ов)
Расположение каналов : Front: L R
Частота : 48,0 КГц
Битовая глубина : 16 бит
Метод сжатия : С потерями
Размер потока : 158 Мбайт (8%)
Выравнивание : Разделение по промежуткам
Продолжительность промежутка : 42 мс. (1,00 видеокадр)
Время предзагрузки промежутка : 500 ms

Аудио #3
Идентификатор : 3
Формат : AC-3
Формат/Информация : Audio Coding 3
Расширение режима : CM (complete main)
Идентификатор кодека : 2000
Продолжительность : 1 ч. 54 м.
Вид битрейта : Постоянный
Битрейт : 192 Кбит/сек
Канал(ы) : 2 канала(ов)
Расположение каналов : Front: L R
Частота : 48,0 КГц
Битовая глубина : 16 бит
Метод сжатия : С потерями
Размер потока : 158 Мбайт (8%)
Выравнивание : Разделение по промежуткам
Продолжительность промежутка : 42 мс. (1,00 видеокадр)
Время предзагрузки промежутка : 500 ms
Релиз от: Leon-masl



Скачать Смерть.скачет.на.коне.Смерть.верхом.на.лошади.Death.Rides.a.Horse.Da.uomo.a.uomo.(Джулио.Петрони).[1967.боевик.вестерн.BDRip].[MVO]+[AVO]+[Оригинал].torrent без регистрации
Золото ЗОЛОТАЯ РАЗДАЧА! СКАЧАННОЕ НЕ ЗАСЧИТЫВАЕТСЯ! Золото
Дата: Зарегистрирован   [ Тип: внутренний ] Как тут cкачать?
MAGNET ссылка
MAGNET ссылка


Скачать .torrent

11 KB

Статус: проверено DHT
Скачан: торрент - 119 раз, раздача полностью - 18 раз
Размер: 2,04 GB
Оценка:  - (Голосов: 0)
Поблагодарили: 1
Поделиться ссылкой на эту раздачу с друзьями:
В контактеFacebookОдноклассникиTwitterLivejournalМой МирLiveinternet
 

 
Показать сообщения:    


Вы не можете начинать темы
Вы не можете отвечать на сообщения
Вы не можете редактировать свои сообщения
Вы не можете удалять свои сообщения
Вы не можете голосовать в опросах
Вы не можете прикреплять файлы к сообщениям
Вы можете скачивать файлы