Loading...
Error

Скачать Роб Рой / Rob Roy (Майкл Кейтон-Джонс) [1995, драма, военный, приключения, история, экранизация, BDRip-AVC] [MVO]x4+[AVO]+[Оригинал]+[Sub] торрент без регистрации

 
Статистика раздачи
Размер:  3,23 GB   |    Скачан:  130 раз

Полного источника не было: 22 минуты

 
Автор Сообщение

Marsianka

[] 

Информация о фильме
Название: Роб Рой
Оригинальное название: Rob Roy
Год выпуска: 1995
Жанр: драма, военный, приключения, история, экранизация
Режиссер: Майкл Кейтон-Джонс
В ролях: Лиам Нисон, Джессика Лэнг, Джон Херт, Тим Рот, Эрик Столц, Эндрю Кир, Брайан Кокс, Брайан МакКарди, Гилберт Мартин, Вики Массон, Джилли Гилкрист, Джейсон Флеминг, Ивэн Стюарт, Дэвид Хеймен, Брайан МакАртур, Дэвид Брукс Палмер, Мира МакФадьен, Карен Мэтисон, Ширли Хендерсон, Джон Мурта, Билл Гардинер, Ричард Боунхилл

О фильме: Если ты не просто отец семейства, а глава клана гордых шотландцев, свято верящих в то, что именно ты, Роберт Рой МакГрегор, сумеешь о них позаботиться и прокормить, то самое время "брать быка за рога" и решиться на заем большой суммы денег у богатого лэндлорда для последующей перепродажи с выгодой приобретенного на них скота... Но что, если это простое по теперешним меркам предприятие внезапно приведет к возникновению угрозы навсегда потерять честь, достоинство и... любовь? Эти вещи продаются?...



Страна: США, Великобритания
Студия: Talisman Productions, United Artists
Продолжительность: 02:19:18
Перевод: Профессиональный многоголосый, авторский одноголосый

Файл
Кодек: x264
Качество: BDRip-AVC
Видео: MPEG-4 AVC, 1908 Кбит/с, 1024х438, 23.976 кадр/с
Аудио #1: Русский (AC3, 2 ch, 192 Кбит/с) / Профессиональный многоголосый (ОРТ)
Аудио #2: Русский (AC3, 2 ch, 192 Кбит/с) / Профессиональный многоголосый (НТВ+)
Аудио #3: Русский (AC3, 2 ch, 192 Кбит/с) / Профессиональный многоголосый (Варус Видео)
Аудио #4: Русский (AC3, 2 ch, 192 Кбит/с) / Профессиональный многоголосый (неизвестный)
Аудио #5: Русский (AC3, 2 ch, 192 Кбит/с) / Авторский одноголосый (Гаврилов)
Аудио #6: Английский (AC3, 6 ch, 448 Кбит/с)
Субтитры: Английские
Семпл
x264 [info]: frame I:1473 Avg QP:14.00 size: 68839
x264 [info]: frame P:47225 Avg QP:17.05 size: 20490
x264 [info]: frame B:151684 Avg QP:19.39 size: 6093

=============================================

Уникальный идентификатор : 182574571972881014153841821634973839969 (0x895A9561DEAE8E43A67576D3055EB261)
Полное имя : E:MCRob.Roy.1995.x264.BDRip(AVC)-MediaClubRob.Roy.1995.x264.BDRip(AVC)-MediaClub.mkv
Формат : Matroska
Версия формата : Version 4 / Version 2
Размер файла : 3,23 Гбайт
Продолжительность : 2 ч. 19 м.
Общий поток : 3319 Кбит/сек
Название фильма : -= Release MediaClub =-
Дата кодирования : UTC 2013-12-21 11:25:17
Программа кодирования : mkvmerge v6.4.1 ('Omega Point') built on Sep 16 2013 22:05:10
Библиотека кодирования : libebml v1.3.0 + libmatroska v1.4.1
Attachment : Yes

Видео
Идентификатор : 1
Формат : AVC
Формат/Информация : Advanced Video Codec
Профиль формата : High@L4.1
Параметр CABAC формата : Да
Параметр ReFrames формата : 10 кадров
Идентификатор кодека : V_MPEG4/ISO/AVC
Продолжительность : 2 ч. 19 м.
Битрейт : 1908 Кбит/сек
Ширина : 1024 пикселя
Высота : 438 пикселей
Соотношение сторон : 2,35:1
Режим частоты кадров : Постоянный
Частота кадров : 23,976 кадра/сек
Цветовое пространство : YUV
Субдискретизация насыщенности : 4:2:0
Битовая глубина : 8 бит
Тип развёртки : Прогрессивная
Бит/(Пиксели*Кадры) : 0.177
Размер потока : 1,80 Гбайт (56%)
Заголовок : Rob.Roy.1995.x264.BDRip(AVC)-neni
Библиотека кодирования : x264 core 130 r2273 b3065e6
Настройки программы : cabac=1 / ref=10 / deblock=1:-2:-2 / analyse=0x3:0x113 / me=umh / subme=11 / psy=1 / psy_rd=1.00:0.15 / mixed_ref=1 / me_range=48 / chroma_me=1 / trellis=2 / 8x8dct=1 / cqm=0 / deadzone=21,11 / fast_pskip=0 / chroma_qp_offset=-3 / threads=9 / lookahead_threads=1 / sliced_threads=0 / nr=0 / decimate=0 / interlaced=0 / bluray_compat=0 / constrained_intra=0 / bframes=8 / b_pyramid=2 / b_adapt=2 / b_bias=0 / direct=3 / weightb=1 / open_gop=0 / weightp=2 / keyint=240 / keyint_min=23 / scenecut=40 / intra_refresh=0 / rc=2pass / mbtree=0 / bitrate=1908 / ratetol=1.0 / qcomp=0.60 / qpmin=0 / qpmax=69 / qpstep=4 / cplxblur=20.0 / qblur=0.5 / ip_ratio=1.40 / pb_ratio=1.30 / aq=1:1.00
Язык : English
Default : Да
Forced : Да

Аудио #1
Идентификатор : 2
Формат : AC-3
Формат/Информация : Audio Coding 3
Расширение режима : CM (complete main)
Параметр Endianness формата : Big
Идентификатор кодека : A_AC3
Продолжительность : 2 ч. 19 м.
Вид битрейта : Постоянный
Битрейт : 192 Кбит/сек
Каналы : 2 канала
Расположение каналов : Front: L R
Частота : 48,0 КГц
Битовая глубина : 16 бит
Метод сжатия : С потерями
Размер потока : 191 Мбайт (6%)
Заголовок : ОРТ
Язык : Russian
Default : Да
Forced : Да

Аудио #2
Идентификатор : 3
Формат : AC-3
Формат/Информация : Audio Coding 3
Расширение режима : CM (complete main)
Параметр Endianness формата : Big
Идентификатор кодека : A_AC3
Продолжительность : 2 ч. 19 м.
Вид битрейта : Постоянный
Битрейт : 192 Кбит/сек
Каналы : 2 канала
Расположение каналов : Front: L R
Частота : 48,0 КГц
Битовая глубина : 16 бит
Метод сжатия : С потерями
Размер потока : 191 Мбайт (6%)
Заголовок : НТВ+
Язык : Russian
Default : Нет
Forced : Нет

Аудио #3
Идентификатор : 4
Формат : AC-3
Формат/Информация : Audio Coding 3
Расширение режима : CM (complete main)
Параметр Endianness формата : Big
Идентификатор кодека : A_AC3
Продолжительность : 2 ч. 19 м.
Вид битрейта : Постоянный
Битрейт : 192 Кбит/сек
Каналы : 2 канала
Расположение каналов : Front: L R
Частота : 48,0 КГц
Битовая глубина : 16 бит
Метод сжатия : С потерями
Размер потока : 191 Мбайт (6%)
Заголовок : Варус Видео
Язык : Russian
Default : Нет
Forced : Нет

Аудио #4
Идентификатор : 5
Формат : AC-3
Формат/Информация : Audio Coding 3
Расширение режима : CM (complete main)
Параметр Endianness формата : Big
Идентификатор кодека : A_AC3
Продолжительность : 2 ч. 19 м.
Вид битрейта : Постоянный
Битрейт : 192 Кбит/сек
Каналы : 2 канала
Расположение каналов : Front: L R
Частота : 48,0 КГц
Битовая глубина : 16 бит
Метод сжатия : С потерями
Размер потока : 191 Мбайт (6%)
Заголовок : многоголосый неизвестный
Язык : Russian
Default : Нет
Forced : Нет

Аудио #5
Идентификатор : 6
Формат : AC-3
Формат/Информация : Audio Coding 3
Расширение режима : CM (complete main)
Параметр Endianness формата : Big
Идентификатор кодека : A_AC3
Продолжительность : 2 ч. 19 м.
Вид битрейта : Постоянный
Битрейт : 192 Кбит/сек
Каналы : 2 канала
Расположение каналов : Front: L R
Частота : 48,0 КГц
Битовая глубина : 16 бит
Метод сжатия : С потерями
Размер потока : 191 Мбайт (6%)
Заголовок : авторский - Андрей Гаврилов
Язык : Russian
Default : Нет
Forced : Нет

Аудио #6
Идентификатор : 7
Формат : AC-3
Формат/Информация : Audio Coding 3
Расширение режима : CM (complete main)
Параметр Endianness формата : Big
Идентификатор кодека : A_AC3
Продолжительность : 2 ч. 19 м.
Вид битрейта : Постоянный
Битрейт : 448 Кбит/сек
Каналы : 6 каналов
Расположение каналов : Front: L C R, Side: L R, LFE
Частота : 48,0 КГц
Битовая глубина : 16 бит
Метод сжатия : С потерями
Размер потока : 446 Мбайт (13%)
Язык : English
Default : Нет
Forced : Нет

Текст
Идентификатор : 8
Формат : UTF-8
Идентификатор кодека : S_TEXT/UTF8
Идентификатор кодека/Информация : UTF-8 Plain Text
Язык : English
Default : Нет
Forced : Нет

Меню
00:00:00.000 : en:00:00:00.000
00:02:18.096 : en:00:02:18.096
00:02:45.791 : en:00:02:45.791
00:07:25.570 : en:00:07:25.570
00:10:24.082 : en:00:10:24.082
00:18:40.870 : en:00:18:40.870
00:24:14.078 : en:00:24:14.078
00:31:48.865 : en:00:31:48.865
00:37:45.930 : en:00:37:45.930
00:45:07.788 : en:00:45:07.788
00:50:27.858 : en:00:50:27.858
00:56:03.402 : en:00:56:03.402
01:02:06.473 : en:01:02:06.473
01:04:22.859 : en:01:04:22.859
01:06:06.838 : en:01:06:06.838
01:12:38.688 : en:01:12:38.688
01:15:37.074 : en:01:15:37.074
01:18:13.814 : en:01:18:13.814
01:22:12.928 : en:01:22:12.928
01:24:50.210 : en:01:24:50.210
01:28:14.456 : en:01:28:14.456
01:30:30.675 : en:01:30:30.675
01:35:40.485 : en:01:35:40.485
01:40:18.346 : en:01:40:18.346
01:43:21.737 : en:01:43:21.737
01:46:22.293 : en:01:46:22.293
01:48:46.854 : en:01:48:46.854
01:53:53.452 : en:01:53:53.452
01:59:30.747 : en:01:59:30.747
02:04:41.015 : en:02:04:41.015
02:11:38.516 : en:02:11:38.516
02:14:10.334 : en:02:14:10.334
Релиз от: Rip by



Скачать Роб.Рой.Rob.Roy.(Майкл.Кейтон-Джонс).[1995.драма.военный.приключения.история.экранизация.BDRip-AVC].[MVO]x4+[AVO]+[Оригинал]+[Sub].torrent без регистрации
Золото ЗОЛОТАЯ РАЗДАЧА! СКАЧАННОЕ НЕ ЗАСЧИТЫВАЕТСЯ! Золото
Дата: Зарегистрирован   [ Тип: внутренний ] Как тут cкачать?
MAGNET ссылка
MAGNET ссылка


Скачать .torrent

17 KB

Статус: проверено DHT
Скачан: торрент - 130 раз, раздача полностью - 57 раз
Размер: 3,23 GB
Оценка:  - (Голосов: 0)
Поблагодарили: 1
Поделиться ссылкой на эту раздачу с друзьями:
В контактеFacebookОдноклассникиTwitterLivejournalМой МирLiveinternet
 

 
Показать сообщения:    


Вы не можете начинать темы
Вы не можете отвечать на сообщения
Вы не можете редактировать свои сообщения
Вы не можете удалять свои сообщения
Вы не можете голосовать в опросах
Вы не можете прикреплять файлы к сообщениям
Вы можете скачивать файлы