Loading...
Error

Скачать Снайпер / Sniper (Луис Льоса) [1992, драма, боевик, WEB-DLRip-AVC] [MVO]+[AVO]x6+[Sub] торрент без регистрации

 
Статистика раздачи
Размер:  3,45 GB   |    Скачан:  142 раза
Сидов:  1  [  0 KB/s  ]  
 
Автор Сообщение

Marsianka

[] 

Название: Снайпер
Оригинальное название: Sniper
Год выпуска: 1992
Жанр: драма, боевик
Выпущено: США, Перу, Sniper Productions, Iguana Producciones, Baltimore Pictures
Продолжительность: 01:39:02
Перевод: Профессиональный многоголосый, авторский одноголосый
Субтитры: Русские, английские

Режиссер: Луис Льоса

В ролях: Том Беренджер, Билли Зейн, Дж.Т. Уолш, Аден Янг, Кен Рэдли, Рейнальдо Аренас, Гэри Суонсон, Хэнк Гаррет, Фредерик Миральотта, Ванесса Стил, Карлос Алварез, Тайлер Коппин, Тео Геберт, Эдвард Уайли, Уильям Куртин, Ховард Боссе, Дон Бейти, Радж Сидху, Рой Эдмондс, Джонни Раен, Лури Кортез, Хорхе Бустаманте, Рекс Линн, Энтони Сзето

О фильме:
Два снайпера. Том Бекет и Ричард Миллер, получают смертельно опасное задание: в джунглях Центральной Америки найти базу колумбийских наркодельцов, проникнуть внутрь и ликвидировать главаря. Возможна только одна попытка, один выстрел.



Качество: WEB-DLRip-AVC
Видео: MPEG-4 AVC, 3041 Кбит/с, 1024x576, 23.976 кадр/с
Аудио#1: Russian: 48 kHz, AC3, 3/2 (L,C,R,l,r) + LFE ch, ~384.00 kbps avg |Многоголосый закадровый, R5|
Аудио#2: Russian: 48 kHz, AC3, 2/0 (L,R) ch, ~192.00 kbps avg |Одноголосый закадровый, А.Гаврилов|
Аудио#3: Russian: 48 kHz, AC3, 3/0 (L,C,R) ch, ~224.00 kbps avg |Одноголосый закадровый, Дмитрий «Гоблин» Пучков (uncensored)|
Аудио#4: English: 48 kHz, AC3, 3/2 (L,C,R,l,r) + LFE ch, ~384.00 kbps avg |R2|
Отдельно:
Аудио#5: Russian: 48 kHz, AC3, 2/0 (L,R) ch, ~192.00 kbps avg |Одноголосый закадровый, М.Латышев|
Аудио#6: Russian: 48 kHz, AC3, 2/0 (L,R) ch, ~192.00 kbps avg |Одноголосый закадровый, Ю.Живов|
Аудио#7: Russian: 48 kHz, AC3, 2/0 (L,R) ch, ~384.00 kbps avg |Одноголосый закадровый, Л.Володарский|
Аудио#8: Russian: 48 kHz, AC3, 2/0 (L,R) ch, ~192.00 kbps avg |Одноголосый закадровый, В.Горчаков|
Субтитры: English, Russian (R5), Russian (Гоблин, uncensored)
---------------------------------------------------------------------
x264 [info]: frame I:1038 Avg QP:16.73 size: 96914
x264 [info]: frame P:41857 Avg QP:19.43 size: 27862
x264 [info]: frame B:99567 Avg QP:21.92 size: 9947
---------------------------------------------------------------------
Формат : Matroska
Версия формата : Version 4 / Version 2
Размер файла : 2,92 Гбайт
Продолжительность : 1 ч. 39 м.
Общий поток : 4225 Кбит/сек
Название фильма : Снайпер | Sniper [1992] -=WEB-DLRip (AVC) by 0ptimus=-
Дата кодирования : UTC 2013-12-23 11:44:40
Программа кодирования : mkvmerge v6.6.0 ('The Edge Of The In Between') built on Dec 1 2013 17:55:00
Библиотека кодирования : libebml v1.3.0 + libmatroska v1.4.1

Видео
Идентификатор : 1
Формат : AVC
Формат/Информация : Advanced Video Codec
Профиль формата : High@L4.1
Параметр CABAC формата : Да
Параметр ReFrames формата : 8 кадров
Идентификатор кодека : V_MPEG4/ISO/AVC
Продолжительность : 1 ч. 39 м.
Битрейт : 3041 Кбит/сек
Ширина : 1024 пикселя
Высота : 576 пикселей
Соотношение сторон : 16:9
Частота кадров : 23,976 кадра/сек
Цветовое пространство : YUV
Субдискретизация насыщенности : 4:2:0
Битовая глубина : 8 бит
Тип развёртки : Прогрессивная
Бит/(Пиксели*Кадры) : 0.215
Размер потока : 2,05 Гбайт (70%)
Заголовок : Rip by 0ptimus
Библиотека кодирования : x264 core 133 r2334 a3ac64b
Настройки программы : cabac=1 / ref=8 / deblock=1:-3:-3 / analyse=0x3:0x113 / me=umh / subme=11 / psy=1 / psy_rd=1.00:0.20 / mixed_ref=1 / me_range=48 / chroma_me=1 / trellis=2 / 8x8dct=1 / cqm=0 / deadzone=21,11 / fast_pskip=0 / chroma_qp_offset=-3 / threads=4 / lookahead_threads=1 / sliced_threads=0 / nr=0 / decimate=0 / interlaced=0 / bluray_compat=0 / constrained_intra=0 / bframes=10 / b_pyramid=2 / b_adapt=2 / b_bias=0 / direct=0 / weightb=1 / open_gop=0 / weightp=2 / keyint=250 / keyint_min=23 / scenecut=40 / intra_refresh=0 / rc_lookahead=40 / rc=2pass / mbtree=0 / bitrate=3041 / ratetol=1.0 / qcomp=0.60 / qpmin=0 / qpmax=69 / qpstep=4 / cplxblur=20.0 / qblur=0.5 / vbv_maxrate=50000 / vbv_bufsize=50000 / nal_hrd=none / ip_ratio=1.40 / pb_ratio=1.30 / aq=1:1.00
Язык : English

Аудио #1
Идентификатор : 2
Формат : AC-3
Формат/Информация : Audio Coding 3
Расширение режима : CM (complete main)
Идентификатор кодека : A_AC3
Продолжительность : 1 ч. 39 м.
Вид битрейта : Постоянный
Битрейт : 384 Кбит/сек
Каналы : 6 каналов
Расположение каналов : Front: L C R, Side: L R, LFE
Частота : 48,0 КГц
Битовая глубина : 16 бит
Метод сжатия : С потерями
Размер потока : 272 Мбайт (9%)
Заголовок : Многоголосый закадровый [R5] AC3 5.1 384 kbps
Язык : Russian

Аудио #2
Идентификатор : 3
Формат : AC-3
Формат/Информация : Audio Coding 3
Профиль формата : Dolby Digital
Расширение режима : CM (complete main)
Идентификатор кодека : A_AC3
Продолжительность : 1 ч. 39 м.
Вид битрейта : Постоянный
Битрейт : 192 Кбит/сек
Каналы : 2 канала
Расположение каналов : Front: L R
Частота : 48,0 КГц
Битовая глубина : 16 бит
Метод сжатия : С потерями
Размер потока : 136 Мбайт (5%)
Заголовок : Авторский [Андрей Гаврилов] AC3 2.0 192 kbps
Язык : Russian

Аудио #3
Идентификатор : 4
Формат : AC-3
Формат/Информация : Audio Coding 3
Расширение режима : CM (complete main)
Идентификатор кодека : A_AC3
Продолжительность : 1 ч. 39 м.
Вид битрейта : Постоянный
Битрейт : 224 Кбит/сек
Каналы : 3 канала
Расположение каналов : Front: L C R
Частота : 48,0 КГц
Битовая глубина : 16 бит
Метод сжатия : С потерями
Размер потока : 159 Мбайт (5%)
Заголовок : Авторский [Дмитрий "Пучков" Гоблин] (нецензурный) AC3 2.1 224 kbps
Язык : Russian

Аудио #4
Идентификатор : 5
Формат : AC-3
Формат/Информация : Audio Coding 3
Расширение режима : CM (complete main)
Идентификатор кодека : A_AC3
Продолжительность : 1 ч. 39 м.
Вид битрейта : Постоянный
Битрейт : 384 Кбит/сек
Каналы : 6 каналов
Расположение каналов : Front: L C R, Side: L R, LFE
Частота : 48,0 КГц
Битовая глубина : 16 бит
Метод сжатия : С потерями
Размер потока : 272 Мбайт (9%)
Заголовок : [R2] AC3 5.1 384 kbps
Язык : English

Текст #1
Идентификатор : 6
Формат : UTF-8
Идентификатор кодека : S_TEXT/UTF8
Идентификатор кодека/Информация : UTF-8 Plain Text
Заголовок : R5
Язык : Russian

Текст #2
Идентификатор : 7
Формат : UTF-8
Идентификатор кодека : S_TEXT/UTF8
Идентификатор кодека/Информация : UTF-8 Plain Text
Заголовок : Гоблин (нецензурный)
Язык : Russian

Текст #3
Идентификатор : 8
Формат : UTF-8
Идентификатор кодека : S_TEXT/UTF8
Идентификатор кодека/Информация : UTF-8 Plain Text
Язык : English

Меню
00:00:00.000 : en:Start
00:13:07.000 : en:Washington
00:16:04.000 : en:A great capper
00:18:39.000 : en:Chopper ride
00:21:45.000 : en:Marine welcome
00:25:36.000 : en:Train insertion
00:33:32.000 : en:Jungle hotel
00:36:03.000 : en:Change in agenda
00:37:28.000 : en:"Feel the rush!"
00:41:22.000 : en:Night patrols
00:43:15.000 : en:The same thing
00:45:12.000 : en:On Beckett's trail
00:46:59.000 : en:Sighting a tracker
00:48:43.000 : en:Beckett's plan
00:51:37.000 : en:"Something's wrong."
00:56:52.000 : en:Night camp
00:57:54.000 : en:In each other's site
01:01:46.000 : en:The plan
01:07:34.000 : en:Eluding the dogs
01:11:02.000 : en:Miller spotted
01:12:06.000 : en:Hand-to-hand combat
01:14:45.000 : en:Firefight
01:18:37.000 : en:Miller loses it
01:23:27.000 : en:Beckett surrenders
01:27:45.000 : en:Torture
01:29:33.000 : en:Miller makes his move
01:31:53.000 : en:One shot, two kills?
01:32:59.000 : en:Night evacuation
Релиз от:



Скачать Снайпер.Sniper.(Луис.Льоса).[1992.драма.боевик.WEB-DLRip-AVC].[MVO]+[AVO]x6+[Sub].torrent без регистрации
Золото ЗОЛОТАЯ РАЗДАЧА! СКАЧАННОЕ НЕ ЗАСЧИТЫВАЕТСЯ! Золото
Дата: Зарегистрирован   [ Тип: внутренний ] Как тут cкачать?
MAGNET ссылка
MAGNET ссылка


Скачать .torrent

36 KB

Статус: проверено DHT
Скачан: торрент - 142 раз, раздача полностью - 12 раз
Размер: 3,45 GB
Оценка:  - (Голосов: 0)
Поблагодарили: 4
Поделиться ссылкой на эту раздачу с друзьями:
В контактеFacebookОдноклассникиTwitterLivejournalМой МирLiveinternet
 

 
Показать сообщения:    


Вы не можете начинать темы
Вы не можете отвечать на сообщения
Вы не можете редактировать свои сообщения
Вы не можете удалять свои сообщения
Вы не можете голосовать в опросах
Вы не можете прикреплять файлы к сообщениям
Вы можете скачивать файлы