Loading...
Error

Скачать Удушье / Choke (Кларк Грегг) [2008, комедия, драма, экранизация, BDRip-AVC] [MVO]+[Sub] торрент без регистрации

 
Статистика раздачи
Размер:  2,94 GB   |    Скачан:  100 раз
Сидов:  1  [  0 KB/s  ]  
 
Автор Сообщение

Marsianka

[] 

Информация о фильме
Название: Удушье
Оригинальное название: Choke
Год выпуска: 2008
Жанр: комедия, драма, экранизация
Режиссер: Кларк Грегг
В ролях: Сэм Рокуэлл, Кэтрин Александр, Теодорина Белло, Кейт Блумберг, Йон Бобо, Уилли Бурк, Хезер Бёрнс, Дэвид Волос-Фонтено, Мэтт Джералд, Кларк Грегг, Джоэл Грей, Виола Харрис, Брэд Хенке, Пас де ла Уэрта, Анжелика Хьюстон, Джиллиан Джейкобс, Джен Джонс, Джордан Лейдж, Келли Макдоналд, Мэтт Мэллой, Мэри Б. МакКанн, Элис Баррет, Марти Мерфи, Нил Пепе, Бижу Филлипс, Пегги Поуп, Денис Рэйми, Дональд Риззо, Джудит Анна Робертс, Йолонда Росс, Майк С. Райан, Соло Скотт, Сюзанн Шеперд, Дэвид Шамбрис, Себастьян Соцци, Кейт Юдэлл, Мелинда Вэйд, Джозеф Басиле, Эллисон Карман, Эрин Уильямс

Описание: Экранизация романа Чака Паланика, о пресной жизни мошенника, подрабатывающего где придется и время от времени разыгрывающего приступы удушья в ресторанах, паразитируя на «спасителях», поддерживающих его деньгами. Кроме того главный герой является сексоголиком, а его полоумная мать скрывает правду о его рождении.



Страна: США
Студия: Fox Searchlight Pictures, ATO Pictures, Contrafilm
Продолжительность: 01:32:09
Перевод: Профессиональный многоголосый

Файл
Качество: BDRip (AVC)
Видео: MPEG-4 AVC, 3500 Кбит/с, 1024x554, 23.976 кадр/с
Аудио #1: Русский (AC3, 6 ch, 448 Кбит/с) / Профессиональный многоголосый
Аудио #2: Русский (AC3, 2 ch, 192 Кбит/с)
Аудио #3: Английский (AC3, 6 ch, 448 Кбит/с)
Субтитры: Русские, английские
Семпл
Общее
Уникальный идентификатор : 180232183096637230632578212854360689142 (0x879774B1B89DD3219BBBD1B6AC5BC9F6)
Полное имя : D:Mои раздачиUdushje.2008.BDRip.(AVC)-MediaClub.mkv
Формат : Matroska
Версия формата : Version 4 / Version 2
Размер файла : 2,94 Гбайт
Продолжительность : 1 ч. 32 м.
Общий поток : 4571 Кбит/сек
Название фильма : -=MediaClub-kaspr=-
Дата кодирования : UTC 2013-12-23 15:57:34
Программа кодирования : mkvmerge v6.1.0 ('Old Devil') built on Mar 4 2013 09:10:42
Библиотека кодирования : libebml v1.3.0 + libmatroska v1.4.0

Видео
Идентификатор : 1
Формат : AVC
Формат/Информация : Advanced Video Codec
Профиль формата : High@L4.1
Параметр CABAC формата : Да
Параметр ReFrames формата : 9 кадров
Идентификатор кодека : V_MPEG4/ISO/AVC
Продолжительность : 1 ч. 32 м.
Битрейт : 3500 Кбит/сек
Ширина : 1024 пикселя
Высота : 554 пикселя
Соотношение сторон : 1,85:1
Режим частоты кадров : Постоянный
Частота кадров : 23,976 кадра/сек
Цветовое пространство : YUV
Субдискретизация насыщенности : 4:2:0
Битовая глубина : 8 бит
Тип развёртки : Прогрессивная
Бит/(Пиксели*Кадры) : 0.257
Размер потока : 2,18 Гбайт (74%)
Заголовок : -=MediaClub-kaspr=-
Библиотека кодирования : x264 core 130 r2273 b3065e6
Настройки программы : cabac=1 / ref=9 / deblock=1:-3:-3 / analyse=0x3:0x133 / me=umh / subme=11 / psy=1 / psy_rd=1.00:0.20 / mixed_ref=1 / me_range=48 / chroma_me=1 / trellis=2 / 8x8dct=1 / cqm=0 / deadzone=21,11 / fast_pskip=0 / chroma_qp_offset=-3 / threads=12 / lookahead_threads=3 / sliced_threads=0 / nr=0 / decimate=0 / interlaced=0 / bluray_compat=0 / constrained_intra=0 / bframes=10 / b_pyramid=2 / b_adapt=2 / b_bias=0 / direct=3 / weightb=1 / open_gop=0 / weightp=2 / keyint=240 / keyint_min=23 / scenecut=40 / intra_refresh=0 / rc=2pass / mbtree=0 / bitrate=3500 / ratetol=1.0 / qcomp=0.60 / qpmin=0 / qpmax=69 / qpstep=4 / cplxblur=20.0 / qblur=0.5 / ip_ratio=1.40 / pb_ratio=1.30 / aq=1:1.00
Default : Да
Forced : Да

Аудио #1
Идентификатор : 2
Формат : AC-3
Формат/Информация : Audio Coding 3
Расширение режима : CM (complete main)
Параметр Endianness формата : Big
Идентификатор кодека : A_AC3
Продолжительность : 1 ч. 32 м.
Вид битрейта : Постоянный
Битрейт : 448 Кбит/сек
Каналы : 6 каналов
Расположение каналов : Front: L C R, Side: L R, LFE
Частота : 48,0 КГц
Битовая глубина : 16 бит
Метод сжатия : С потерями
Размер потока : 295 Мбайт (10%)
Заголовок : MVO
Язык : Russian
Default : Да
Forced : Да

Аудио #2
Идентификатор : 3
Формат : AC-3
Формат/Информация : Audio Coding 3
Расширение режима : CM (complete main)
Параметр Endianness формата : Big
Идентификатор кодека : A_AC3
Продолжительность : 1 ч. 32 м.
Вид битрейта : Постоянный
Битрейт : 192 Кбит/сек
Каналы : 2 канала
Расположение каналов : Front: L R
Частота : 48,0 КГц
Битовая глубина : 16 бит
Метод сжатия : С потерями
Размер потока : 127 Мбайт (4%)
Язык : Ukrainian
Default : Нет
Forced : Нет

Аудио #3
Идентификатор : 4
Формат : AC-3
Формат/Информация : Audio Coding 3
Расширение режима : CM (complete main)
Параметр Endianness формата : Big
Идентификатор кодека : A_AC3
Продолжительность : 1 ч. 32 м.
Вид битрейта : Постоянный
Битрейт : 448 Кбит/сек
Каналы : 6 каналов
Расположение каналов : Front: L C R, Side: L R, LFE
Частота : 48,0 КГц
Битовая глубина : 16 бит
Метод сжатия : С потерями
Размер потока : 295 Мбайт (10%)
Язык : English
Default : Нет
Forced : Нет

Текст #1
Идентификатор : 5
Формат : UTF-8
Идентификатор кодека : S_TEXT/UTF8
Идентификатор кодека/Информация : UTF-8 Plain Text
Язык : Russian
Default : Нет
Forced : Нет

Текст #2
Идентификатор : 6
Формат : UTF-8
Идентификатор кодека : S_TEXT/UTF8
Идентификатор кодека/Информация : UTF-8 Plain Text
Язык : English
Default : Нет
Forced : Нет

Меню
00:00:00.000 : en:Chapter 01
00:03:36.506 : en:Chapter 02
00:09:04.210 : en:Chapter 03
00:15:49.281 : en:Chapter 04
00:17:58.118 : en:Chapter 05
00:20:48.955 : en:Chapter 06
00:23:53.515 : en:Chapter 07
00:27:56.590 : en:Chapter 08
00:33:08.736 : en:Chapter 09
00:35:04.560 : en:Chapter 10
00:36:56.422 : en:Chapter 11
00:40:55.744 : en:Chapter 12
00:43:25.268 : en:Chapter 13
00:47:45.571 : en:Chapter 14
00:51:32.422 : en:Chapter 15
00:57:05.922 : en:Chapter 16
00:59:04.457 : en:Chapter 17
01:04:40.876 : en:Chapter 18
01:09:05.474 : en:Chapter 19
01:13:02.669 : en:Chapter 20
01:15:08.587 : en:Chapter 21
01:18:47.930 : en:Chapter 22
01:21:41.104 : en:Chapter 23
01:26:35.314 : en:Chapter 24
01:31:46.459 : en:Chapter 25
Релиз: |



Скачать Удушье.Choke.(Кларк.Грегг).[2008.комедия.драма.экранизация.BDRip-AVC].[MVO]+[Sub].torrent без регистрации
Золото ЗОЛОТАЯ РАЗДАЧА! СКАЧАННОЕ НЕ ЗАСЧИТЫВАЕТСЯ! Золото
Дата: Зарегистрирован   [ Тип: внутренний ] Как тут cкачать?
MAGNET ссылка
MAGNET ссылка


Скачать .torrent

15 KB

Статус: проверено DHT
Скачан: торрент - 100 раз, раздача полностью - 6 раз
Размер: 2,94 GB
Оценка:  - (Голосов: 0)
Поблагодарили: 2
Поделиться ссылкой на эту раздачу с друзьями:
В контактеFacebookОдноклассникиTwitterLivejournalМой МирLiveinternet
 

 
Показать сообщения:    


Вы не можете начинать темы
Вы не можете отвечать на сообщения
Вы не можете редактировать свои сообщения
Вы не можете удалять свои сообщения
Вы не можете голосовать в опросах
Вы не можете прикреплять файлы к сообщениям
Вы можете скачивать файлы