Loading...
Error

Скачать Поспешишь, людей насмешишь / Fools Rush In (Энди Теннант) [1997, драма, мелодрама, комедия, HDTVRip] [MVO] торрент без регистрации

 
Статистика раздачи
Размер:  1,45 GB   |    Скачан:  105 раз

Полного источника не было: 26 минут

 
Автор Сообщение

Marsianka

[] 

Информация о фильме
Название: Поспешишь, людей насмешишь
Оригинальное название: Fools Rush In
Год выхода: 1997
Жанр: драма, мелодрама, комедия
Режиссер: Энди Теннант
В ролях: Мэттью Перри, Сальма Хайек, Джон Тенни, Карлос Гомес, Томас Милиан, Шиван Фэллон, Джон Беннет Перри, Стэнли ДеСантис, Сюзанн Снайдер, Энн Бетанкорт

О фильме:
Познакомившись с очаровательной Изабель, Апекс Уитман и не подозревал, что ночь страсти не пройдет бесследно, а станет началом любви. И когда Изабель сообщает, что ждет от него ребенка, Алекс принимает решение жениться на девушке.

Он не знает свою возлюбленную но это не имеет для него большого значения, ведь он уверен, что любовь это то чувство, которое приходит всего один раз в жизни.



Страна: США
Студия: Columbia Pictures
Продолжительность: 01:44:33
Перевод: Профессиональный (многоголосый закадровый)

Файл
Кодек: AVC/H.264 / AC3
Качество: HDTVRip
Видео: AVC, 1024x576 (16:9), 25.000 fps, 1 797 Kbps (0.122 bit/pixel)
Звук: AC-3, 48.0 KHz, 2 ch, 192 Kbps, CBR (Russian)
General
Unique ID : 182778794170233109439427268315930015710 (0x8981EA5063AD2FECA2DF98A0F265B7DE)
Complete name : /Поспешишь, людей насмешишь.mkv
Format : Matroska
Format version : Version 4 / Version 2
File size : 1.45 GiB
Duration : 1h 44mn
Overall bit rate : 1 990 Kbps
Encoded date : UTC 2013-12-23 20:39:27
Writing application : mkvmerge v6.4.1 ('Omega Point') built on Sep 16 2013 22:05:10
Writing library : libebml v1.3.0 + libmatroska v1.4.1

Video
ID : 1
Format : AVC
Format/Info : Advanced Video Codec
Format profile : High@L4.1
Format settings, CABAC : Yes
Format settings, ReFrames : 8 frames
Codec ID : V_MPEG4/ISO/AVC
Duration : 1h 44mn
Bit rate : 1 797 Kbps
Width : 1 024 pixels
Height : 576 pixels
Display aspect ratio : 16:9
Frame rate : 25.000 fps
Color space : YUV
Chroma subsampling : 4:2:0
Bit depth : 8 bits
Scan type : Progressive
Bits/(Pixel*Frame) : 0.122
Stream size : 1.28 GiB (88%)
Title : Fools Rush In
Writing library : x264 core 130 r2273 b3065e6
Encoding settings : cabac=1 / ref=8 / deblock=1:-1:-1 / analyse=0x3:0x133 / me=umh / subme=9 / psy=1 / psy_rd=1.00:0.10 / mixed_ref=1 / me_range=32 / chroma_me=1 / trellis=2 / 8x8dct=1 / cqm=0 / deadzone=21,11 / fast_pskip=0 / chroma_qp_offset=-3 / threads=6 / lookahead_threads=1 / sliced_threads=0 / nr=0 / decimate=1 / interlaced=0 / bluray_compat=0 / constrained_intra=0 / bframes=3 / b_pyramid=2 / b_adapt=2 / b_bias=0 / direct=3 / weightb=1 / open_gop=0 / weightp=2 / keyint=250 / keyint_min=25 / scenecut=40 / intra_refresh=0 / rc_lookahead=60 / rc=2pass / mbtree=1 / bitrate=1797 / ratetol=1.0 / qcomp=0.60 / qpmin=10 / qpmax=51 / qpstep=4 / cplxblur=20.0 / qblur=0.5 / ip_ratio=1.40 / aq=1:1.00
Language : English
Default : Yes
Forced : No

Audio
ID : 2
Format : AC-3
Format/Info : Audio Coding 3
Mode extension : CM (complete main)
Format settings, Endianness : Big
Codec ID : A_AC3
Duration : 1h 44mn
Bit rate mode : Constant
Bit rate : 192 Kbps
Channel(s) : 2 channels
Channel positions : Front: L R
Sampling rate : 48.0 KHz
Bit depth : 16 bits
Compression mode : Lossy
Stream size : 144 MiB (10%)
Title : Профессиональный многоголосый
Language : Russian
Default : Yes
Forced : No



Скачать Поспешишь.людей.насмешишь.Fools.Rush.In.(Энди.Теннант).[1997.драма.мелодрама.комедия.HDTVRip].[MVO].torrent без регистрации
Золото ЗОЛОТАЯ РАЗДАЧА! СКАЧАННОЕ НЕ ЗАСЧИТЫВАЕТСЯ! Золото
Дата: Зарегистрирован   [ Тип: внутренний ] Как тут cкачать?
MAGNET ссылка
MAGNET ссылка


Скачать .torrent

16 KB

Статус: проверено DHT
Скачан: торрент - 105 раз, раздача полностью - 9 раз
Размер: 1,45 GB
Оценка:  - (Голосов: 0)
Поблагодарили: 1
Поделиться ссылкой на эту раздачу с друзьями:
В контактеFacebookОдноклассникиTwitterLivejournalМой МирLiveinternet
 

 
Показать сообщения:    


Вы не можете начинать темы
Вы не можете отвечать на сообщения
Вы не можете редактировать свои сообщения
Вы не можете удалять свои сообщения
Вы не можете голосовать в опросах
Вы не можете прикреплять файлы к сообщениям
Вы можете скачивать файлы