Loading...
Error

Скачать Гоемон / Goemon (Казуаки Кирия) [2009, боевик, драма, BDRip-AVC] [DVO]+[VO]+[Оригинал]+[Sub] торрент без регистрации

 
Статистика раздачи
Размер:  3,79 GB   |    Скачан:  105 раз
Сидов:  1  [  0 KB/s  ]  
 
Автор Сообщение

Marsianka

[] 

Информация о фильме
Название: Гоемон
Оригинальное название: Goemon
Год выхода: 2009
Жанр: боевик, драма
Режиссер: Казуаки Кирия
В ролях: Йосуке Егучи, Такао Осава, Риоко Хиросуэ, Джан Канаме, Гори, Микидзиро Хира, Масато Ибу, Тетсуджи Тамаяма, Хашиношуке Накамура, Эйджи Окуда
О фильме:1582 год. Великий Ода Нобунага пал от руки своего некогда верного вассала Мицухидэ Акечи. Но и его судьба была предрешена Тойотоми Хидэёси взял власть в стране в свои руки. Он провёл чёткую грань между самураями и крестьянами, в результате чего пропасть между богатыми и бедными стала как никогда шире. Но 15 лет спустя в стране появился человек, который встал на защиту крестьян в неравной борьбе с правительством. Этим человеком стал великий ниндзя Исикава Гоемон. Тайны прошлой жизни свели его с другим не менее легендарным ниндзя Киригакурэ Сайзо. Кто же победит в этой борьбе?



Страна: Япония
Студия: Cell, Daiichi Shokai Co., Dentsu, Dream Kid, Eisei Gekijo, Goemon Partners, Hot Toys, Kinoshita Management, Kiriya Pictures, Oz Company Ltd., TV Asahi, Warner Bros., Yoshimoto Kogyo Co. Ltd.
Продолжительность: 02:07:51
Перевод: Профессиональный двухголосый + любительский одноголосый + оригинал

Файл
Кодек: MPEG-4 AVC
Качество: BDRip-AVC
Видео: MPEG-4 AVC, 2900 Кбит/с, 1024x436, 23.976 кадр/с
Аудио #1: Русский (AC3, 6 ch, 448 Кбит/с) / Профессиональный двухголосый
Аудио #2: Русский (AC3, 6 ch, 448 Кбит/с) / Любительский одноголосый
Аудио #3: Японский (AC3, 6 ch, 448 Кбит/с)
Субтитры: Русские, английские
Семпл
Общее
Уникальный идентификатор : 243931150682421366855721944418227407017 (0xB7836E456C4A3372A6E39D6340C148A9)
Полное имя : D:Мои РипыGoemon.2009.x264.BDRip.AVC.MediaClub.mkv
Формат : Matroska
Версия формата : Version 4 / Version 2
Размер файла : 3,79 Гбайт
Продолжительность : 2 ч. 7 м.
Общий поток : 4245 Кбит/сек
Название фильма : = MediaClub = rip by krakatuq
Дата кодирования : UTC 2013-12-24 10:30:38
Программа кодирования : mkvmerge v6.5.0 ('Isn't she lovely') built on Oct 20 2013 12:50:05
Библиотека кодирования : libebml v1.3.0 + libmatroska v1.4.1

Видео
Идентификатор : 1
Формат : AVC
Формат/Информация : Advanced Video Codec
Профиль формата : High@L4.1
Параметр CABAC формата : Да
Параметр ReFrames формата : 9 кадров
Идентификатор кодека : V_MPEG4/ISO/AVC
Продолжительность : 2 ч. 7 м.
Битрейт : 2900 Кбит/сек
Ширина : 1024 пикселя
Высота : 436 пикселей
Соотношение сторон : 2,35:1
Режим частоты кадров : Постоянный
Частота кадров : 23,976 кадра/сек
Цветовое пространство : YUV
Субдискретизация насыщенности : 4:2:0
Битовая глубина : 8 бит
Тип развёртки : Прогрессивная
Бит/(Пиксели*Кадры) : 0.271
Размер потока : 2,52 Гбайт (66%)
Заголовок : Goemon.2009.x264.BDRip.AVC.MediaClub
Библиотека кодирования : x264 core 130 r2273 b3065e6
Настройки программы : cabac=1 / ref=9 / deblock=1:-2:-2 / analyse=0x3:0x133 / me=umh / subme=11 / psy=1 / psy_rd=1.00:0.10 / mixed_ref=1 / me_range=32 / chroma_me=1 / trellis=2 / 8x8dct=1 / cqm=0 / deadzone=21,11 / fast_pskip=0 / chroma_qp_offset=-3 / threads=3 / lookahead_threads=1 / sliced_threads=0 / nr=0 / decimate=0 / interlaced=0 / bluray_compat=0 / constrained_intra=0 / bframes=8 / b_pyramid=2 / b_adapt=2 / b_bias=0 / direct=3 / weightb=1 / open_gop=0 / weightp=2 / keyint=240 / keyint_min=23 / scenecut=40 / intra_refresh=0 / rc=2pass / mbtree=0 / bitrate=2900 / ratetol=1.0 / qcomp=0.60 / qpmin=0 / qpmax=69 / qpstep=4 / cplxblur=20.0 / qblur=0.5 / ip_ratio=1.40 / pb_ratio=1.30 / aq=1:1.00
Язык : Japanese
Default : Да
Forced : Нет

Аудио #1
Идентификатор : 2
Формат : AC-3
Формат/Информация : Audio Coding 3
Расширение режима : CM (complete main)
Параметр Endianness формата : Big
Идентификатор кодека : A_AC3
Продолжительность : 2 ч. 7 м.
Вид битрейта : Постоянный
Битрейт : 448 Кбит/сек
Каналы : 6 каналов
Расположение каналов : Front: L C R, Side: L R, LFE
Частота : 48,0 КГц
Битовая глубина : 16 бит
Метод сжатия : С потерями
Размер потока : 410 Мбайт (11%)
Заголовок : TRACK_01_DVO_RUS
Язык : Russian
Default : Да
Forced : Да

Аудио #2
Идентификатор : 3
Формат : AC-3
Формат/Информация : Audio Coding 3
Расширение режима : CM (complete main)
Параметр Endianness формата : Big
Идентификатор кодека : A_AC3
Продолжительность : 2 ч. 7 м.
Вид битрейта : Постоянный
Битрейт : 448 Кбит/сек
Каналы : 6 каналов
Расположение каналов : Front: L C R, Side: L R, LFE
Частота : 48,0 КГц
Битовая глубина : 16 бит
Метод сжатия : С потерями
Размер потока : 410 Мбайт (11%)
Заголовок : TRACK_02_VO_RUS
Язык : Russian
Default : Нет
Forced : Нет

Аудио #3
Идентификатор : 4
Формат : AC-3
Формат/Информация : Audio Coding 3
Расширение режима : CM (complete main)
Параметр Endianness формата : Big
Идентификатор кодека : A_AC3
Продолжительность : 2 ч. 7 м.
Вид битрейта : Постоянный
Битрейт : 448 Кбит/сек
Каналы : 6 каналов
Расположение каналов : Front: L C R, Side: L R, LFE
Частота : 48,0 КГц
Битовая глубина : 16 бит
Метод сжатия : С потерями
Размер потока : 410 Мбайт (11%)
Заголовок : TRACK_03_ORIGINAL_JAP
Язык : Japanese
Default : Нет
Forced : Нет

Текст #1
Идентификатор : 5
Формат : UTF-8
Идентификатор кодека : S_TEXT/UTF8
Идентификатор кодека/Информация : UTF-8 Plain Text
Заголовок : TEXT_01_RUS
Язык : Russian
Default : Нет
Forced : Нет

Текст #2
Идентификатор : 6
Формат : UTF-8
Идентификатор кодека : S_TEXT/UTF8
Идентификатор кодека/Информация : UTF-8 Plain Text
Заголовок : TEXT_02_ENG
Язык : English
Default : Нет
Forced : Нет

Меню
00:00:00.000 : en:Chapter 01
00:05:00.000 : en:Chapter 02
00:10:00.000 : en:Chapter 03
00:15:00.000 : en:Chapter 04
00:20:00.000 : en:Chapter 05
00:25:00.000 : en:Chapter 06
00:30:00.000 : en:Chapter 07
00:35:00.000 : en:Chapter 08
00:40:00.000 : en:Chapter 09
00:45:00.000 : en:Chapter 10
00:50:00.000 : en:Chapter 11
00:55:00.000 : en:Chapter 12
01:00:00.000 : en:Chapter 13
01:05:00.000 : en:Chapter 14
01:10:00.000 : en:Chapter 15
01:15:00.000 : en:Chapter 16
01:20:00.000 : en:Chapter 17
01:25:00.000 : en:Chapter 18
01:30:00.000 : en:Chapter 19
01:35:00.000 : en:Chapter 20
01:40:00.000 : en:Chapter 21
01:45:00.000 : en:Chapter 22
01:50:00.000 : en:Chapter 23
01:55:00.000 : en:Chapter 24
02:00:00.000 : en:Chapter 25
02:05:00.000 : en:Chapter 26
x264 [info]: frame I:1717 Avg QP:15.21 size: 91116
x264 [info]: frame P:45391 Avg QP:18.45 size: 27801
x264 [info]: frame B:136827 Avg QP:19.94 size: 9949
За помощь в подготовке релиза спасибо Константину - Painter и Виталию - neni

За постер спасибо Инне - cookies от Media-Art-Club
Релиз от:

Автор рипа:



Скачать Гоемон.Goemon.(Казуаки.Кирия).[2009.боевик.драма.BDRip-AVC].[DVO]+[VO]+[Оригинал]+[Sub].torrent без регистрации
Золото ЗОЛОТАЯ РАЗДАЧА! СКАЧАННОЕ НЕ ЗАСЧИТЫВАЕТСЯ! Золото
Дата: Зарегистрирован   [ Тип: внутренний ] Как тут cкачать?
MAGNET ссылка
MAGNET ссылка


Скачать .torrent

19 KB

Статус: проверено DHT
Скачан: торрент - 105 раз, раздача полностью - 5 раз
Размер: 3,79 GB
Оценка:  - (Голосов: 0)
Поблагодарили: 1
Поделиться ссылкой на эту раздачу с друзьями:
В контактеFacebookОдноклассникиTwitterLivejournalМой МирLiveinternet
 

 
Показать сообщения:    


Вы не можете начинать темы
Вы не можете отвечать на сообщения
Вы не можете редактировать свои сообщения
Вы не можете удалять свои сообщения
Вы не можете голосовать в опросах
Вы не можете прикреплять файлы к сообщениям
Вы можете скачивать файлы