Loading...
Error

Скачать К-9: Собачья работа / K-9 (Род Дэниэл / Rod Daniel) [1989, боевик, комедия WEB-DLRip] [AVO] (А.Гаврилов) + [DVO] (НТВ) торрент без регистрации

 
Статистика раздачи
Размер:  1,6 GB   |    Скачан:  5345 раз
Сидов:  1  [  0 KB/s  ]  
 
Автор Сообщение

leon030982

[] 

К-9: Собачья работа / K-9


Год выпуска: 1989
Страна: США
Жанр: боевик, комедия
Продолжительность: 01:41:21
Перевод #1: Авторский (одноголосный)[А.Гаврилов]
Перевод #2: Профессиональный (двухголосный, закадровый)[НТВ]
Cубтитры: нет

Режиссер: Род Дэниэл / Rod Daniel

В ролях: Джеймс Белуши, Мэл Харрис, Кевин Тай, Джеймс Хэнди, Эд О’Нил, Джерри Ли, Дэниэл Дэвис, Коттер Смит, Джон Снайдер, Прюитт, Тэйлор Винс

Описание: Детектив Майкл Дули одержим борьбой с преступностью, он презирает опасности и имеет скверный характер. Поэтому с ним никто не хочет работать. Но в собачьем питомнике K-9 есть собака, аналог детектива Дули...



Качество видео: WEB-DLRip
Формат видео: AVI
Видео кодек: XviD
Аудио кодек: MP3, AC-3
Видео: 704x384, 23.976 fps, XviD build 64 ~1862 kbps avg, 0.287 bit/pixel
Аудио №1: 44.100 kHz, MPEG Layer 3, 2 ch, ~192.00 kbps avg [А.Гаврилов]
Аудио №2: 48 kHz, AC3 Dolby Digital, 2/0 (L,R) ch, ~192 kbps [НТВ] VHSRip
Рип с WEB-DL 720p от HDStar.
За оцифровку перевода НТВ спасибо bora86bora (роли озвучивали Борис Миронов и Наталья Гурзо)
Дорожка Гаврилова взята с DVDRip-а _int_
General
Complete name : E:\INTERNET\K-9.1989.WEB-DLRip.[AVO]+[DVO].avi
Format : AVI
Format/Info : Audio Video Interleave
File size : 1.60 GiB
Duration : 1h 41mn
Overall bit rate : 2 259 Kbps
Writing application : VirtualDubMod 1.5.10.3 (build 2550/release)
Writing library : VirtualDubMod build 2550/release

Video
ID : 0
Format : MPEG-4 Visual
Format profile : Advanced Simple@L5
Format settings, BVOP : 2
Format settings, QPel : No
Format settings, GMC : No warppoints
Format settings, Matrix : Default (MPEG)
Muxing mode : Packed bitstream
Codec ID : XVID
Codec ID/Hint : XviD
Duration : 1h 41mn
Bit rate : 1 863 Kbps
Width : 704 pixels
Height : 384 pixels
Display aspect ratio : 16:9
Frame rate : 23.976 fps
Color space : YUV
Chroma subsampling : 4:2:0
Bit depth : 8 bits
Scan type : Progressive
Compression mode : Lossy
Bits/(Pixel*Frame) : 0.287
Stream size : 1.32 GiB (82%)
Writing library : XviD 64

Audio #1
ID : 1
Format : MPEG Audio
Format version : Version 1
Format profile : Layer 3
Codec ID : 55
Codec ID/Hint : MP3
Duration : 1h 39mn
Bit rate mode : Constant
Bit rate : 192 Kbps
Channel(s) : 2 channels
Sampling rate : 44.1 KHz
Compression mode : Lossy
Delay relative to video : 2s 0ms
Stream size : 137 MiB (8%)
Alignment : Split accross interleaves
Interleave, duration : 42 ms (1.01 video frame)
Interleave, preload duration : 500 ms

Audio #2
ID : 2
Format : AC-3
Format/Info : Audio Coding 3
Mode extension : CM (complete main)
Codec ID : 2000
Duration : 1h 41mn
Bit rate mode : Constant
Bit rate : 192 Kbps
Channel(s) : 2 channels
Channel positions : Front: L R
Sampling rate : 48.0 KHz
Bit depth : 16 bits
Compression mode : Lossy
Stream size : 139 MiB (9%)
Alignment : Split accross interleaves
Interleave, duration : 42 ms (1.00 video frame)
Interleave, preload duration : 500 ms



Скачать К-9.Собачья.работа.K-9.(Род.Дэниэл.Rod.Daniel).[1989.боевик.комедия.WEB-DLRip].[AVO].(А.Гаврилов).+.[DVO].(НТВ).torrent без регистрации
Золото ЗОЛОТАЯ РАЗДАЧА! СКАЧАННОЕ НЕ ЗАСЧИТЫВАЕТСЯ! Золото
Дата: Зарегистрирован   [ Тип: внутренний ] Как тут cкачать?
MAGNET ссылка
MAGNET ссылка


Скачать .torrent

17 KB

Статус: проверено DHT
Скачан: торрент - 5345 раз, раздача полностью - 2 раз
Размер: 1,6 GB
Оценка:  5 (Голосов: 2)
Поблагодарили: 4
Поделиться ссылкой на эту раздачу с друзьями:
В контактеFacebookОдноклассникиTwitterLivejournalМой МирLiveinternet
 

 
Показать сообщения:    


Вы не можете начинать темы
Вы не можете отвечать на сообщения
Вы не можете редактировать свои сообщения
Вы не можете удалять свои сообщения
Вы не можете голосовать в опросах
Вы не можете прикреплять файлы к сообщениям
Вы можете скачивать файлы